  0
SECTION
  2
HEADER
  9
$ACADVER
  1
AC1015
  9
$ACADMAINTVER
 70
    20
  9
$DWGCODEPAGE
  3
ANSI_932
  9
$INSBASE
 10
0.0
 20
0.0
 30
0.0
  9
$EXTMIN
 10
-52.15772761891479
 20
-4.575195505466524
 30
0.0
  9
$EXTMAX
 10
709.7462049378464
 20
1204.756472332118
 30
0.0
  9
$LIMMIN
 10
0.0
 20
0.0
  9
$LIMMAX
 10
844.4999999998799
 20
1300.0
  9
$ORTHOMODE
 70
     0
  9
$REGENMODE
 70
     1
  9
$FILLMODE
 70
     1
  9
$QTEXTMODE
 70
     0
  9
$MIRRTEXT
 70
     1
  9
$LTSCALE
 40
1.0
  9
$ATTMODE
 70
     2
  9
$TEXTSIZE
 40
20.0
  9
$TRACEWID
 40
1.0
  9
$TEXTSTYLE
  7
STANDARD
  9
$CLAYER
  8
0
  9
$CELTYPE
  6
BYLAYER
  9
$CECOLOR
 62
   256
  9
$CELTSCALE
 40
1.0
  9
$DISPSILH
 70
     0
  9
$DIMSCALE
 40
3.0
  9
$DIMASZ
 40
2.5
  9
$DIMEXO
 40
0.5
  9
$DIMDLI
 40
8.0
  9
$DIMRND
 40
0.0
  9
$DIMDLE
 40
0.0
  9
$DIMEXE
 40
1.25
  9
$DIMTP
 40
0.0
  9
$DIMTM
 40
0.0
  9
$DIMTXT
 40
2.5
  9
$DIMCEN
 40
-2.5
  9
$DIMTSZ
 40
0.0
  9
$DIMTOL
 70
     0
  9
$DIMLIM
 70
     0
  9
$DIMTIH
 70
     0
  9
$DIMTOH
 70
     0
  9
$DIMSE1
 70
     0
  9
$DIMSE2
 70
     0
  9
$DIMTAD
 70
     1
  9
$DIMZIN
 70
     8
  9
$DIMBLK
  1

  9
$DIMASO
 70
     1
  9
$DIMSHO
 70
     1
  9
$DIMPOST
  1

  9
$DIMAPOST
  1

  9
$DIMALT
 70
     0
  9
$DIMALTD
 70
     3
  9
$DIMALTF
 40
0.03937007874016
  9
$DIMLFAC
 40
1.0
  9
$DIMTOFL
 70
     1
  9
$DIMTVP
 40
0.0
  9
$DIMTIX
 70
     0
  9
$DIMSOXD
 70
     1
  9
$DIMSAH
 70
     0
  9
$DIMBLK1
  1

  9
$DIMBLK2
  1

  9
$DIMSTYLE
  2
MY_DIM1
  9
$DIMCLRD
 70
     0
  9
$DIMCLRE
 70
     0
  9
$DIMCLRT
 70
     0
  9
$DIMTFAC
 40
1.0
  9
$DIMGAP
 40
0.625
  9
$DIMJUST
 70
     0
  9
$DIMSD1
 70
     0
  9
$DIMSD2
 70
     0
  9
$DIMTOLJ
 70
     0
  9
$DIMTZIN
 70
     8
  9
$DIMALTZ
 70
     0
  9
$DIMALTTZ
 70
     0
  9
$DIMUPT
 70
     0
  9
$DIMDEC
 70
     1
  9
$DIMTDEC
 70
     1
  9
$DIMALTU
 70
     2
  9
$DIMALTTD
 70
     3
  9
$DIMTXSTY
  7
STANDARD
  9
$DIMAUNIT
 70
     0
  9
$DIMADEC
 70
     0
  9
$DIMALTRND
 40
0.0
  9
$DIMAZIN
 70
     0
  9
$DIMDSEP
 70
    46
  9
$DIMATFIT
 70
     3
  9
$DIMFRAC
 70
     0
  9
$DIMLDRBLK
  1

  9
$DIMLUNIT
 70
     2
  9
$DIMLWD
 70
    -2
  9
$DIMLWE
 70
    -2
  9
$DIMTMOVE
 70
     0
  9
$LUNITS
 70
     2
  9
$LUPREC
 70
     3
  9
$SKETCHINC
 40
1.0
  9
$FILLETRAD
 40
10.0
  9
$AUNITS
 70
     0
  9
$AUPREC
 70
     3
  9
$MENU
  1
.
  9
$ELEVATION
 40
0.0
  9
$PELEVATION
 40
0.0
  9
$THICKNESS
 40
0.0
  9
$LIMCHECK
 70
     0
  9
$CHAMFERA
 40
10.0
  9
$CHAMFERB
 40
10.0
  9
$CHAMFERC
 40
20.0
  9
$CHAMFERD
 40
0.0
  9
$SKPOLY
 70
     0
  9
$TDCREATE
 40
2451959.740335185
  9
$TDUCREATE
 40
2451959.365335185
  9
$TDUPDATE
 40
2455008.398221747
  9
$TDUUPDATE
 40
2455008.023221747
  9
$TDINDWG
 40
0.3146145255
  9
$TDUSRTIMER
 40
0.3145931481
  9
$USRTIMER
 70
     1
  9
$ANGBASE
 50
0.0
  9
$ANGDIR
 70
     0
  9
$PDMODE
 70
     0
  9
$PDSIZE
 40
0.0
  9
$PLINEWID
 40
0.0
  9
$SPLFRAME
 70
     0
  9
$SPLINETYPE
 70
     6
  9
$SPLINESEGS
 70
     8
  9
$HANDSEED
  5
E8D
  9
$SURFTAB1
 70
     6
  9
$SURFTAB2
 70
     6
  9
$SURFTYPE
 70
     6
  9
$SURFU
 70
     6
  9
$SURFV
 70
     6
  9
$UCSBASE
  2

  9
$UCSNAME
  2

  9
$UCSORG
 10
0.0
 20
0.0
 30
0.0
  9
$UCSXDIR
 10
1.0
 20
0.0
 30
0.0
  9
$UCSYDIR
 10
0.0
 20
1.0
 30
0.0
  9
$UCSORTHOREF
  2

  9
$UCSORTHOVIEW
 70
     0
  9
$UCSORGTOP
 10
0.0
 20
0.0
 30
0.0
  9
$UCSORGBOTTOM
 10
0.0
 20
0.0
 30
0.0
  9
$UCSORGLEFT
 10
0.0
 20
0.0
 30
0.0
  9
$UCSORGRIGHT
 10
0.0
 20
0.0
 30
0.0
  9
$UCSORGFRONT
 10
0.0
 20
0.0
 30
0.0
  9
$UCSORGBACK
 10
0.0
 20
0.0
 30
0.0
  9
$PUCSBASE
  2

  9
$PUCSNAME
  2

  9
$PUCSORG
 10
0.0
 20
0.0
 30
0.0
  9
$PUCSXDIR
 10
1.0
 20
0.0
 30
0.0
  9
$PUCSYDIR
 10
0.0
 20
1.0
 30
0.0
  9
$PUCSORTHOREF
  2

  9
$PUCSORTHOVIEW
 70
     0
  9
$PUCSORGTOP
 10
0.0
 20
0.0
 30
0.0
  9
$PUCSORGBOTTOM
 10
0.0
 20
0.0
 30
0.0
  9
$PUCSORGLEFT
 10
0.0
 20
0.0
 30
0.0
  9
$PUCSORGRIGHT
 10
0.0
 20
0.0
 30
0.0
  9
$PUCSORGFRONT
 10
0.0
 20
0.0
 30
0.0
  9
$PUCSORGBACK
 10
0.0
 20
0.0
 30
0.0
  9
$USERI1
 70
     0
  9
$USERI2
 70
     0
  9
$USERI3
 70
     0
  9
$USERI4
 70
     0
  9
$USERI5
 70
     0
  9
$USERR1
 40
0.0
  9
$USERR2
 40
0.0
  9
$USERR3
 40
0.0
  9
$USERR4
 40
0.0
  9
$USERR5
 40
0.0
  9
$WORLDVIEW
 70
     1
  9
$SHADEDGE
 70
     3
  9
$SHADEDIF
 70
    70
  9
$TILEMODE
 70
     1
  9
$MAXACTVP
 70
    64
  9
$PINSBASE
 10
0.0
 20
0.0
 30
0.0
  9
$PLIMCHECK
 70
     0
  9
$PEXTMIN
 10
6.703265470842779
 20
7.072107672031222
 30
0.0
  9
$PEXTMAX
 10
278.4752292124351
 20
402.890161458626
 30
0.0
  9
$PLIMMIN
 10
-5.873749732971191
 20
-5.873747825622557
  9
$PLIMMAX
 10
291.0522451400757
 20
414.0729074478149
  9
$UNITMODE
 70
     0
  9
$VISRETAIN
 70
     1
  9
$PLINEGEN
 70
     0
  9
$PSLTSCALE
 70
     1
  9
$TREEDEPTH
 70
  3020
  9
$CMLSTYLE
  2
STANDARD
  9
$CMLJUST
 70
     0
  9
$CMLSCALE
 40
20.0
  9
$PROXYGRAPHICS
 70
     1
  9
$MEASUREMENT
 70
     0
  9
$CELWEIGHT
370
    -1
  9
$ENDCAPS
280
     0
  9
$JOINSTYLE
280
     0
  9
$LWDISPLAY
290
     0
  9
$INSUNITS
 70
     0
  9
$HYPERLINKBASE
  1

  9
$STYLESHEET
  1

  9
$XEDIT
290
     1
  9
$CEPSNTYPE
380
     0
  9
$PSTYLEMODE
290
     1
  9
$FINGERPRINTGUID
  2
{239180D7-5393-4412-84CA-9137575F9F9A}
  9
$VERSIONGUID
  2
{BA4ED26B-9A94-4F3D-866D-F56D4A3E43EE}
  9
$EXTNAMES
290
     1
  9
$PSVPSCALE
 40
0.0
  9
$OLESTARTUP
290
     0
  0
ENDSEC
  0
SECTION
  2
CLASSES
  0
CLASS
  1
ACDBDICTIONARYWDFLT
  2
AcDbDictionaryWithDefault
  3
ObjectDBX Classes
 90
        0
280
     0
281
     0
  0
CLASS
  1
ACDBPLACEHOLDER
  2
AcDbPlaceHolder
  3
ObjectDBX Classes
 90
        0
280
     0
281
     0
  0
CLASS
  1
LAYOUT
  2
AcDbLayout
  3
ObjectDBX Classes
 90
        0
280
     0
281
     0
  0
CLASS
  1
DICTIONARYVAR
  2
AcDbDictionaryVar
  3
ObjectDBX Classes
 90
        0
280
     0
281
     0
  0
CLASS
  1
MATERIAL
  2
AcDbMaterial
  3
ObjectDBX Classes
 90
     1153
280
     0
281
     0
  0
CLASS
  1
VISUALSTYLE
  2
AcDbVisualStyle
  3
ObjectDBX Classes
 90
     4095
280
     0
281
     0
  0
CLASS
  1
TABLESTYLE
  2
AcDbTableStyle
  3
ObjectDBX Classes
 90
     4095
280
     0
281
     0
  0
CLASS
  1
SCALE
  2
AcDbScale
  3
ObjectDBX Classes
 90
     1153
280
     0
281
     0
  0
CLASS
  1
MLEADERSTYLE
  2
AcDbMLeaderStyle
  3
ACDB_MLEADERSTYLE_CLASS
 90
     4095
280
     0
281
     0
  0
CLASS
  1
SORTENTSTABLE
  2
AcDbSortentsTable
  3
ObjectDBX Classes
 90
        0
280
     0
281
     0
  0
CLASS
  1
CELLSTYLEMAP
  2
AcDbCellStyleMap
  3
ObjectDBX Classes
 90
     1152
280
     0
281
     0
  0
ENDSEC
  0
SECTION
  2
TABLES
  0
TABLE
  2
VPORT
  5
8
330
0
100
AcDbSymbolTable
 70
     1
  0
VPORT
  5
D6A
330
8
100
AcDbSymbolTableRecord
100
AcDbViewportTableRecord
  2
*ACTIVE
 70
     0
 10
0.0
 20
0.0
 11
1.0
 21
1.0
 12
203.2425724182667
 22
856.4883614278016
 13
0.0
 23
0.0
 14
1.0
 24
1.0
 15
10.0
 25
10.0
 16
0.0
 26
0.0
 36
1.0
 17
0.0
 27
0.0
 37
0.0
 40
710.7754612485873
 41
1.784280936454849
 42
50.0
 43
0.0
 44
0.0
 50
0.0
 51
0.0
 71
     0
 72
   100
 73
     1
 74
     3
 75
     0
 76
     0
 77
     0
 78
     0
281
     0
 65
     1
110
0.0
120
0.0
130
0.0
111
1.0
121
0.0
131
0.0
112
0.0
122
1.0
132
0.0
 79
     0
146
0.0
  0
ENDTAB
  0
TABLE
  2
LTYPE
  5
5
330
0
100
AcDbSymbolTable
 70
     3
  0
LTYPE
  5
14
330
5
100
AcDbSymbolTableRecord
100
AcDbLinetypeTableRecord
  2
BYBLOCK
 70
     0
  3

 72
    65
 73
     0
 40
0.0
  0
LTYPE
  5
15
330
5
100
AcDbSymbolTableRecord
100
AcDbLinetypeTableRecord
  2
BYLAYER
 70
     0
  3

 72
    65
 73
     0
 40
0.0
  0
LTYPE
  5
16
330
5
100
AcDbSymbolTableRecord
100
AcDbLinetypeTableRecord
  2
CONTINUOUS
 70
     0
  3
Solid line
 72
    65
 73
     0
 40
0.0
  0
LTYPE
  5
47
330
5
100
AcDbSymbolTableRecord
100
AcDbLinetypeTableRecord
  2
HIDDEN
 70
     0
  3
Hidden __ __ __ __ __ __ __ __ __ __ __ __ __ _
 72
    65
 73
     2
 40
9.524999999999996
 49
6.349999999999998
 74
     0
 49
-3.174999999999998
 74
     0
  0
LTYPE
  5
48
330
5
100
AcDbSymbolTableRecord
100
AcDbLinetypeTableRecord
  2
CENTER
 70
     0
  3
Center ____ _ ____ _ ____ _ ____ _ ____ _ ____
 72
    65
 73
     4
 40
50.8
 49
31.75
 74
     0
 49
-6.349999999999998
 74
     0
 49
6.349999999999998
 74
     0
 49
-6.349999999999998
 74
     0
  0
ENDTAB
  0
TABLE
  2
LAYER
  5
2
330
0
100
AcDbSymbolTable
 70
    11
  0
LAYER
  5
10
102
{ACAD_XDICTIONARY
360
E5E
102
}
330
2
100
AcDbSymbolTableRecord
100
AcDbLayerTableRecord
  2
0
 70
     0
 62
     7
  6
CONTINUOUS
370
    -3
390
DE4
  0
LAYER
  5
49
102
{ACAD_XDICTIONARY
360
E60
102
}
330
2
100
AcDbSymbolTableRecord
100
AcDbLayerTableRecord
  2
外形線
 70
     0
 62
     5
  6
CONTINUOUS
370
    -3
390
DE4
  0
LAYER
  5
4A
102
{ACAD_XDICTIONARY
360
E62
102
}
330
2
100
AcDbSymbolTableRecord
100
AcDbLayerTableRecord
  2
隠線
 70
     0
 62
     8
  6
HIDDEN
370
    -3
390
DE4
  0
LAYER
  5
4B
102
{ACAD_XDICTIONARY
360
E64
102
}
330
2
100
AcDbSymbolTableRecord
100
AcDbLayerTableRecord
  2
センタ_線
 70
     0
 62
     4
  6
CENTER
370
    -3
390
DE4
  0
LAYER
  5
4C
102
{ACAD_XDICTIONARY
360
E66
102
}
330
2
100
AcDbSymbolTableRecord
100
AcDbLayerTableRecord
  2
寸法線
 70
     0
 62
     1
  6
CONTINUOUS
370
    -3
390
DE4
  0
LAYER
  5
4D
102
{ACAD_XDICTIONARY
360
E68
102
}
330
2
100
AcDbSymbolTableRecord
100
AcDbLayerTableRecord
  2
補助線
 70
     0
 62
     2
  6
CONTINUOUS
370
    -3
390
DE4
  0
LAYER
  5
6B
102
{ACAD_XDICTIONARY
360
E6A
102
}
330
2
100
AcDbSymbolTableRecord
100
AcDbLayerTableRecord
  2
太実線
 70
     0
 62
   202
  6
CONTINUOUS
370
    -3
390
DE4
  0
LAYER
  5
71
102
{ACAD_XDICTIONARY
360
E6C
102
}
330
2
100
AcDbSymbolTableRecord
100
AcDbLayerTableRecord
  2
中実線
 70
     0
 62
     4
  6
CONTINUOUS
370
    -3
390
DE4
  0
LAYER
  5
26A
102
{ACAD_XDICTIONARY
360
E6E
102
}
330
2
100
AcDbSymbolTableRecord
100
AcDbLayerTableRecord
  2
ASHADE
 70
     4
 62
     7
  6
CONTINUOUS
370
    -3
390
DE4
  0
LAYER
  5
4AD
102
{ACAD_XDICTIONARY
360
E70
102
}
330
2
100
AcDbSymbolTableRecord
100
AcDbLayerTableRecord
  2
外形細線
 70
     0
 62
     6
  6
CONTINUOUS
370
    -3
390
DE4
  0
LAYER
  5
4AE
330
2
100
AcDbSymbolTableRecord
100
AcDbLayerTableRecord
  2
DEFPOINTS
 70
     0
 62
     7
  6
CONTINUOUS
290
     0
370
    -3
390
DE4
  0
ENDTAB
  0
TABLE
  2
STYLE
  5
3
330
0
100
AcDbSymbolTable
 70
     4
  0
STYLE
  5
11
330
3
100
AcDbSymbolTableRecord
100
AcDbTextStyleTableRecord
  2
STANDARD
 70
     0
 40
0.0
 41
1.0
 50
0.0
 71
     0
 42
20.0
  3
isocp.shx
  4
bigfont.shx
  0
STYLE
  5
46
330
3
100
AcDbSymbolTableRecord
100
AcDbTextStyleTableRecord
  2

 70
     1
 40
0.0
 41
1.0
 50
0.0
 71
     0
 42
2.5
  3
ltypeshp.shx
  4

  0
STYLE
  5
79
330
3
100
AcDbSymbolTableRecord
100
AcDbTextStyleTableRecord
  2
DEMENTION
 70
     0
 40
0.0
 41
1.0
 50
15.0
 71
     0
 42
2.5
  3
isocp.shx
  4
bigfont.shx
  0
STYLE
  5
266
330
3
100
AcDbSymbolTableRecord
100
AcDbTextStyleTableRecord
  2
ASHADE
 70
     0
 40
0.2
 41
1.0
 50
0.0
 71
     0
 42
2.5
  3
txt.shx
  4
bigfont.shx
  0
ENDTAB
  0
TABLE
  2
VIEW
  5
6
330
0
100
AcDbSymbolTable
 70
     0
  0
ENDTAB
  0
TABLE
  2
UCS
  5
7
330
0
100
AcDbSymbolTable
 70
     0
  0
ENDTAB
  0
TABLE
  2
APPID
  5
9
330
0
100
AcDbSymbolTable
 70
     7
  0
APPID
  5
12
330
9
100
AcDbSymbolTableRecord
100
AcDbRegAppTableRecord
  2
ACAD
 70
     0
  0
APPID
  5
268
330
9
100
AcDbSymbolTableRecord
100
AcDbRegAppTableRecord
  2
AVE_RENDER
 70
     0
  0
APPID
  5
269
330
9
100
AcDbSymbolTableRecord
100
AcDbRegAppTableRecord
  2
AVE_ENTITY_MATERIAL
 70
     0
  0
APPID
  5
276
330
9
100
AcDbSymbolTableRecord
100
AcDbRegAppTableRecord
  2
AVE_FINISH
 70
     0
  0
APPID
  5
277
330
9
100
AcDbSymbolTableRecord
100
AcDbRegAppTableRecord
  2
AVE_MATERIAL
 70
     0
  0
APPID
  5
278
330
9
100
AcDbSymbolTableRecord
100
AcDbRegAppTableRecord
  2
AVE_GLOBAL
 70
     0
  0
APPID
  5
E36
330
9
100
AcDbSymbolTableRecord
100
AcDbRegAppTableRecord
  2
ACAD_MLEADERVER
 70
     0
  0
ENDTAB
  0
TABLE
  2
DIMSTYLE
  5
A
330
0
100
AcDbSymbolTable
 70
     4
100
AcDbDimStyleTable
 71
     1
340
27
  0
DIMSTYLE
105
27
102
{ACAD_REACTORS
330
C12
330
C20
330
C2E
330
C51
330
C5E
330
C78
330
C85
330
C92
330
C9F
330
CAC
330
CD6
330
CEC
330
E44
330
E51
102
}
330
A
100
AcDbSymbolTableRecord
100
AcDbDimStyleTableRecord
  2
MY_DIM1
 70
     0
 40
3.0
 41
2.5
 42
0.5
 43
8.0
 44
1.25
 73
     0
 74
     0
 77
     1
 78
     8
140
2.5
141
-2.5
143
0.03937007874016
147
0.625
171
     3
172
     1
175
     1
271
     1
272
     1
274
     3
283
     0
284
     8
340
11
  0
DIMSTYLE
105
285
330
A
100
AcDbSymbolTableRecord
100
AcDbDimStyleTableRecord
  2
MY_DIM1$4
 70
     0
 40
3.0
 41
2.5
 42
0.5
 43
8.0
 44
1.25
 73
     0
 74
     0
 77
     1
 78
     8
140
2.5
141
-2.5
143
0.03937007874016
147
0.625
171
     3
172
     1
175
     1
271
     1
272
     1
274
     3
283
     0
284
     8
340
11
  0
DIMSTYLE
105
286
102
{ACAD_REACTORS
330
D02
330
D35
102
}
330
A
100
AcDbSymbolTableRecord
100
AcDbDimStyleTableRecord
  2
MY_DIM1$3
 70
     0
 40
3.0
 41
2.5
 42
0.5
 43
8.0
 44
1.25
 73
     0
 74
     0
 77
     1
 78
     8
140
2.5
141
-2.5
143
0.03937007874016
147
0.625
171
     3
172
     1
175
     1
271
     1
272
     1
274
     3
283
     0
284
     8
340
11
  0
DIMSTYLE
105
4AF
102
{ACAD_REACTORS
330
4C9
330
4C3
330
4D6
330
4D7
330
4CF
330
4C0
330
4BF
330
4DE
330
4BE
330
4C1
330
4C2
330
4B9
330
4B2
330
4ED
330
4B1
102
}
330
A
100
AcDbSymbolTableRecord
100
AcDbDimStyleTableRecord
  2
ISO-25
 70
     0
 41
2.5
 42
0.625
 43
3.75
 44
1.25
 73
     0
 74
     0
 77
     1
 78
     8
140
2.5
141
2.5
143
0.03937007874016
147
0.625
171
     3
172
     1
271
     2
272
     2
274
     3
283
     0
284
     8
340
11
  0
ENDTAB
  0
TABLE
  2
BLOCK_RECORD
  5
1
330
0
100
AcDbSymbolTable
 70
    43
  0
BLOCK_RECORD
  5
1F
102
{ACAD_XDICTIONARY
360
D6B
102
}
330
1
100
AcDbSymbolTableRecord
100
AcDbBlockTableRecord
  2
*MODEL_SPACE
340
E37
  0
BLOCK_RECORD
  5
526
102
{ACAD_XDICTIONARY
360
D6D
102
}
330
1
100
AcDbSymbolTableRecord
100
AcDbBlockTableRecord
  2
*PAPER_SPACE
340
E38
  0
BLOCK_RECORD
  5
98
330
1
100
AcDbSymbolTableRecord
100
AcDbBlockTableRecord
  2
A$C00D70D3F
340
0
  0
BLOCK_RECORD
  5
1AB
330
1
100
AcDbSymbolTableRecord
100
AcDbBlockTableRecord
  2
A$C42463F41
340
0
  0
BLOCK_RECORD
  5
26B
330
1
100
AcDbSymbolTableRecord
100
AcDbBlockTableRecord
  2
AVE_RENDER
340
0
102
{BLKREFS
331
26E
331
26F
331
270
331
271
331
272
331
273
331
274
331
275
102
}
  0
BLOCK_RECORD
  5
279
330
1
100
AcDbSymbolTableRecord
100
AcDbBlockTableRecord
  2
AVE_GLOBAL
340
0
102
{BLKREFS
331
27C
102
}
  0
BLOCK_RECORD
  5
3F8
330
1
100
AcDbSymbolTableRecord
100
AcDbBlockTableRecord
  2
*D4
340
0
  0
BLOCK_RECORD
  5
404
330
1
100
AcDbSymbolTableRecord
100
AcDbBlockTableRecord
  2
*D5
340
0
  0
BLOCK_RECORD
  5
410
330
1
100
AcDbSymbolTableRecord
100
AcDbBlockTableRecord
  2
*D6
340
0
  0
BLOCK_RECORD
  5
41C
330
1
100
AcDbSymbolTableRecord
100
AcDbBlockTableRecord
  2
*D7
340
0
  0
BLOCK_RECORD
  5
428
330
1
100
AcDbSymbolTableRecord
100
AcDbBlockTableRecord
  2
*D8
340
0
  0
BLOCK_RECORD
  5
434
330
1
100
AcDbSymbolTableRecord
100
AcDbBlockTableRecord
  2
*D9
340
0
  0
BLOCK_RECORD
  5
440
330
1
100
AcDbSymbolTableRecord
100
AcDbBlockTableRecord
  2
*D10
340
0
  0
BLOCK_RECORD
  5
44C
330
1
100
AcDbSymbolTableRecord
100
AcDbBlockTableRecord
  2
*D11
340
0
  0
BLOCK_RECORD
  5
458
330
1
100
AcDbSymbolTableRecord
100
AcDbBlockTableRecord
  2
*D12
340
0
  0
BLOCK_RECORD
  5
464
330
1
100
AcDbSymbolTableRecord
100
AcDbBlockTableRecord
  2
*D13
340
0
  0
BLOCK_RECORD
  5
471
330
1
100
AcDbSymbolTableRecord
100
AcDbBlockTableRecord
  2
*D14
340
0
  0
BLOCK_RECORD
  5
47D
330
1
100
AcDbSymbolTableRecord
100
AcDbBlockTableRecord
  2
*D15
340
0
  0
BLOCK_RECORD
  5
489
330
1
100
AcDbSymbolTableRecord
100
AcDbBlockTableRecord
  2
*D16
340
0
  0
BLOCK_RECORD
  5
495
330
1
100
AcDbSymbolTableRecord
100
AcDbBlockTableRecord
  2
*D17
340
0
  0
BLOCK_RECORD
  5
4A1
330
1
100
AcDbSymbolTableRecord
100
AcDbBlockTableRecord
  2
*D18
340
0
  0
BLOCK_RECORD
  5
4B0
330
1
100
AcDbSymbolTableRecord
100
AcDbBlockTableRecord
  2
A$C318A2D0B
340
0
  0
BLOCK_RECORD
  5
579
330
1
100
AcDbSymbolTableRecord
100
AcDbBlockTableRecord
  2
TAPF08N
340
0
102
{BLKREFS
331
6E0
102
}
  0
BLOCK_RECORD
  5
6DF
330
1
100
AcDbSymbolTableRecord
100
AcDbBlockTableRecord
  2
A$C22A23505
340
0
  0
BLOCK_RECORD
  5
85F
330
1
100
AcDbSymbolTableRecord
100
AcDbBlockTableRecord
  2
CRFN04
340
0
102
{BLKREFS
331
92F
331
937
331
93E
331
943
331
964
331
967
331
AC5
331
AC6
102
}
  0
BLOCK_RECORD
  5
86B
330
1
100
AcDbSymbolTableRecord
100
AcDbBlockTableRecord
  2
HB08H
340
0
102
{BLKREFS
331
92A
331
93A
331
96C
102
}
  0
BLOCK_RECORD
  5
875
330
1
100
AcDbSymbolTableRecord
100
AcDbBlockTableRecord
  2
N12S08
340
0
102
{BLKREFS
331
919
331
988
331
B6E
331
B71
331
B7A
331
B83
102
}
  0
BLOCK_RECORD
  5
B8D
330
1
100
AcDbSymbolTableRecord
100
AcDbBlockTableRecord
  2
CRSM0400
340
0
102
{BLKREFS
331
BC3
331
BC4
331
BCE
331
BD0
102
}
  0
BLOCK_RECORD
  5
C13
330
1
100
AcDbSymbolTableRecord
100
AcDbBlockTableRecord
  2
*D26
340
0
  0
BLOCK_RECORD
  5
C21
330
1
100
AcDbSymbolTableRecord
100
AcDbBlockTableRecord
  2
*D27
340
0
  0
BLOCK_RECORD
  5
C2F
330
1
100
AcDbSymbolTableRecord
100
AcDbBlockTableRecord
  2
*D28
340
0
  0
BLOCK_RECORD
  5
C45
330
1
100
AcDbSymbolTableRecord
100
AcDbBlockTableRecord
  2
*D29
340
0
  0
BLOCK_RECORD
  5
C52
330
1
100
AcDbSymbolTableRecord
100
AcDbBlockTableRecord
  2
*D30
340
0
  0
BLOCK_RECORD
  5
C5F
330
1
100
AcDbSymbolTableRecord
100
AcDbBlockTableRecord
  2
*D31
340
0
  0
BLOCK_RECORD
  5
C79
330
1
100
AcDbSymbolTableRecord
100
AcDbBlockTableRecord
  2
*D32
340
0
  0
BLOCK_RECORD
  5
C86
330
1
100
AcDbSymbolTableRecord
100
AcDbBlockTableRecord
  2
*D33
340
0
  0
BLOCK_RECORD
  5
C93
330
1
100
AcDbSymbolTableRecord
100
AcDbBlockTableRecord
  2
*D34
340
0
  0
BLOCK_RECORD
  5
CA0
330
1
100
AcDbSymbolTableRecord
100
AcDbBlockTableRecord
  2
*D35
340
0
  0
BLOCK_RECORD
  5
CAD
330
1
100
AcDbSymbolTableRecord
100
AcDbBlockTableRecord
  2
*D36
340
0
  0
BLOCK_RECORD
  5
CD7
330
1
100
AcDbSymbolTableRecord
100
AcDbBlockTableRecord
  2
*D37
340
0
  0
BLOCK_RECORD
  5
CED
330
1
100
AcDbSymbolTableRecord
100
AcDbBlockTableRecord
  2
*D38
340
0
  0
BLOCK_RECORD
  5
D03
330
1
100
AcDbSymbolTableRecord
100
AcDbBlockTableRecord
  2
*D39
340
0
  0
BLOCK_RECORD
  5
D36
330
1
100
AcDbSymbolTableRecord
100
AcDbBlockTableRecord
  2
*D40
340
0
  0
BLOCK_RECORD
  5
E45
330
1
100
AcDbSymbolTableRecord
100
AcDbBlockTableRecord
  2
*D41
340
0
  0
BLOCK_RECORD
  5
E52
330
1
100
AcDbSymbolTableRecord
100
AcDbBlockTableRecord
  2
*D42
340
0
  0
ENDTAB
  0
ENDSEC
  0
SECTION
  2
BLOCKS
  0
BLOCK
  5
20
330
1F
100
AcDbEntity
  8
0
100
AcDbBlockBegin
  2
*MODEL_SPACE
 70
     0
 10
0.0
 20
0.0
 30
0.0
  3
*MODEL_SPACE
  1

  0
ENDBLK
  5
21
330
1F
100
AcDbEntity
  8
0
100
AcDbBlockEnd
  0
BLOCK
  5
528
330
526
100
AcDbEntity
 67
     1
  8
0
100
AcDbBlockBegin
  2
*PAPER_SPACE
 70
     0
 10
0.0
 20
0.0
 30
0.0
  3
*PAPER_SPACE
  1

  0
ENDBLK
  5
529
330
526
100
AcDbEntity
 67
     1
  8
0
100
AcDbBlockEnd
  0
BLOCK
  5
9A
330
98
100
AcDbEntity
  8
0
100
AcDbBlockBegin
  2
A$C00D70D3F
 70
     0
 10
0.0
 20
0.0
 30
0.0
  3
A$C00D70D3F
  1

  0
MTEXT
  5
99
330
98
100
AcDbEntity
  8
太実線
100
AcDbMText
 10
-0.0000008137901659
 20
2.500000122029746
 30
0.0
 40
2.5
 41
61.0
 71
     1
 72
     5
  1
京都自動機器株式会社
 73
     1
 44
1.0
1001
ACAD
1000
MTEXTBEGIN
1070
    73
1070
     1
1070
    44
1040
1.0
1070
    74
1070
     0
1000
MTEXTEND
  0
ENDBLK
  5
9B
330
98
100
AcDbEntity
  8
0
100
AcDbBlockEnd
  0
BLOCK
  5
1BD
330
1AB
100
AcDbEntity
  8
0
100
AcDbBlockBegin
  2
A$C42463F41
 70
     0
 10
0.0
 20
0.0
 30
0.0
  3
A$C42463F41
  1

  0
LINE
  5
1AC
330
1AB
100
AcDbEntity
  8
太実線
100
AcDbLine
 10
-0.0000004967369023
 20
40.00000022370682
 30
0.0
 11
119.999999503263
 21
40.00000022370682
 31
0.0
  0
LINE
  5
1AD
330
1AB
100
AcDbEntity
  8
太実線
100
AcDbLine
 10
119.999999503263
 20
30.00000022370683
 30
0.0
 11
-0.0000004967369023
 21
30.00000022370683
 31
0.0
  0
LINE
  5
1AE
330
1AB
100
AcDbEntity
  8
太実線
100
AcDbLine
 10
-0.0000004967369023
 20
20.00000022370682
 30
0.0
 11
119.999999503263
 21
20.00000022370682
 31
0.0
  0
LINE
  5
1AF
330
1AB
100
AcDbEntity
  8
太実線
100
AcDbLine
 10
-0.0000004967369023
 20
10.00000022370681
 30
0.0
 11
119.999999503263
 21
10.00000022370681
 31
0.0
  0
LINE
  5
1B0
330
1AB
100
AcDbEntity
  8
太実線
100
AcDbLine
 10
-0.0000004967369023
 20
0.0000002237068202
 30
0.0
 11
119.999999503263
 21
0.0000002237068202
 31
0.0
  0
LINE
  5
1B1
330
1AB
100
AcDbEntity
  8
太実線
100
AcDbLine
 10
-0.0000004967369023
 20
40.00000022370682
 30
0.0
 11
-0.0000004967369023
 21
0.0000002237068202
 31
0.0
  0
MTEXT
  5
1B2
330
1AB
100
AcDbEntity
  8
太実線
100
AcDbMText
 10
-0.0000004967369023
 20
20.00000022370682
 30
0.0
 40
2.5
 41
9.0
 71
     1
 72
     5
  1
担当
 73
     1
 44
1.0
1001
ACAD
1000
MTEXTBEGIN
1070
    73
1070
     1
1070
    44
1040
1.0
1070
    74
1070
     0
1000
MTEXTEND
  0
MTEXT
  5
1B3
330
1AB
100
AcDbEntity
  8
太実線
100
AcDbMText
 10
29.99999950326309
 20
20.00000022370682
 30
0.0
 40
2.5
 41
10.0
 71
     1
 72
     5
  1
製図
 73
     1
 44
1.0
1001
ACAD
1000
MTEXTBEGIN
1070
    73
1070
     1
1070
    44
1040
1.0
1070
    74
1070
     0
1000
MTEXTEND
  0
LINE
  5
1B4
330
1AB
100
AcDbEntity
  8
太実線
100
AcDbLine
 10
29.99999950326309
 20
20.00000022370682
 30
0.0
 11
29.99999950326309
 21
10.00000022370681
 31
0.0
  0
MTEXT
  5
1B5
330
1AB
100
AcDbEntity
  8
太実線
100
AcDbMText
 10
59.99999950326309
 20
20.00000022370682
 30
0.0
 40
2.5
 41
11.0
 71
     1
 72
     5
  1
検図
 73
     1
 44
1.0
1001
ACAD
1000
MTEXTBEGIN
1070
    73
1070
     1
1070
    44
1040
1.0
1070
    74
1070
     0
1000
MTEXTEND
  0
LINE
  5
1B6
330
1AB
100
AcDbEntity
  8
太実線
100
AcDbLine
 10
59.99999950326309
 20
20.00000022370682
 30
0.0
 11
59.99999950326309
 21
10.00000022370681
 31
0.0
  0
MTEXT
  5
1B7
330
1AB
100
AcDbEntity
  8
太実線
100
AcDbMText
 10
38.99999948298841
 20
6.500000635272612
 30
0.0
 40
2.5
 41
0.0
 71
     1
 72
     5
  1
京 都 自 動 機 器 株 式 会 社
 73
     1
 44
1.0
1001
ACAD
1000
MTEXTBEGIN
1070
    73
1070
     1
1070
    44
1040
1.0
1070
    74
1070
     0
1000
MTEXTEND
  0
LINE
  5
1B8
330
1AB
100
AcDbEntity
  8
太実線
100
AcDbLine
 10
89.9999995032631
 20
40.00000022370682
 30
0.0
 11
89.9999995032631
 21
10.00000022370681
 31
0.0
  0
MTEXT
  5
1B9
330
1AB
100
AcDbEntity
  8
太実線
100
AcDbMText
 10
89.9999995032631
 20
20.00000022370682
 30
0.0
 40
2.5
 41
21.0
 71
     1
 72
     5
  1
設計年月日
 73
     1
 44
1.0
1001
ACAD
1000
MTEXTBEGIN
1070
    73
1070
     1
1070
    44
1040
1.0
1070
    74
1070
     0
1000
MTEXTEND
  0
MTEXT
  5
1BA
330
1AB
100
AcDbEntity
  8
太実線
100
AcDbMText
 10
89.9999995032631
 20
30.00000022370683
 30
0.0
 40
2.5
 41
20.0
 71
     1
 72
     5
  1
図面番号
 73
     1
 44
1.0
1001
ACAD
1000
MTEXTBEGIN
1070
    73
1070
     1
1070
    44
1040
1.0
1070
    74
1070
     0
1000
MTEXTEND
  0
MTEXT
  5
1BB
330
1AB
100
AcDbEntity
  8
太実線
100
AcDbMText
 10
89.9999995032631
 20
40.00000022370682
 30
0.0
 40
2.5
 41
20.0
 71
     1
 72
     5
  1
設計番号
 73
     1
 44
1.0
1001
ACAD
1000
MTEXTBEGIN
1070
    73
1070
     1
1070
    44
1040
1.0
1070
    74
1070
     0
1000
MTEXTEND
  0
LINE
  5
1BC
330
1AB
100
AcDbEntity
  8
太実線
100
AcDbLine
 10
119.999999503263
 20
0.0000002237068202
 30
0.0
 11
119.999999503263
 21
40.00000022370682
 31
0.0
  0
ENDBLK
  5
1BE
330
1AB
100
AcDbEntity
  8
0
100
AcDbBlockEnd
  0
BLOCK
  5
26C
330
26B
100
AcDbEntity
  8
ASHADE
100
AcDbBlockBegin
  2
AVE_RENDER
 70
     0
 10
0.0
 20
0.0
 30
0.0
  3
AVE_RENDER
  1
AVE_RENDER
  0
ENDBLK
  5
26D
330
26B
100
AcDbEntity
  8
0
100
AcDbBlockEnd
  0
BLOCK
  5
27A
330
279
100
AcDbEntity
  8
ASHADE
100
AcDbBlockBegin
  2
AVE_GLOBAL
 70
     0
 10
0.0
 20
0.0
 30
0.0
  3
AVE_GLOBAL
  1
AVE_GLOBAL
  0
ENDBLK
  5
27B
330
279
100
AcDbEntity
  8
0
100
AcDbBlockEnd
  0
BLOCK
  5
402
330
3F8
100
AcDbEntity
  8
0
100
AcDbBlockBegin
  2
*D4
 70
     1
 10
0.0
 20
0.0
 30
0.0
  3
*D4
  1

  0
LINE
  5
3F9
330
3F8
100
AcDbEntity
  8
寸法線
 62
     0
100
AcDbLine
 10
49.375
 20
100.0
 30
0.0
 11
40.0
 21
100.0
 31
0.0
  0
LINE
  5
3FA
330
3F8
100
AcDbEntity
  8
寸法線
 62
     0
100
AcDbLine
 10
49.375
 20
50.0
 30
0.0
 11
40.0
 21
50.0
 31
0.0
  0
LINE
  5
3FB
330
3F8
100
AcDbEntity
  8
寸法線
 62
     0
100
AcDbLine
 10
41.25
 20
97.5
 30
0.0
 11
41.25
 21
52.5
 31
0.0
  0
SOLID
  5
3FC
330
3F8
100
AcDbEntity
  8
寸法線
 62
     0
100
AcDbTrace
 10
40.83333333333334
 20
97.5
 30
0.0
 11
41.66666666666666
 21
97.5
 31
0.0
 12
41.25
 22
100.0
 32
0.0
 13
41.25
 23
100.0
 33
0.0
  0
SOLID
  5
3FD
330
3F8
100
AcDbEntity
  8
寸法線
 62
     0
100
AcDbTrace
 10
40.83333333333334
 20
52.5
 30
0.0
 11
41.66666666666666
 21
52.5
 31
0.0
 12
41.25
 22
50.0
 32
0.0
 13
41.25
 23
50.0
 33
0.0
  0
MTEXT
  5
3FE
330
3F8
100
AcDbEntity
  8
寸法線
 62
     0
100
AcDbMText
 10
39.375
 20
75.5
 30
0.0
 40
2.5
 41
0.0
 71
     5
 72
     5
  1
50
 11
0.0000000000000001
 21
1.0
 31
0.0
 73
     1
 44
1.0
1001
ACAD
1000
MTEXTBEGIN
1070
    73
1070
     1
1070
    44
1040
1.0
1070
    74
1070
     0
1000
MTEXTEND
  0
POINT
  5
3FF
330
3F8
100
AcDbEntity
  8
DEFPOINTS
 62
     0
100
AcDbPoint
 10
50.0
 20
100.0
 30
0.0
  0
POINT
  5
400
330
3F8
100
AcDbEntity
  8
DEFPOINTS
 62
     0
100
AcDbPoint
 10
50.0
 20
50.0
 30
0.0
  0
POINT
  5
401
330
3F8
100
AcDbEntity
  8
DEFPOINTS
 62
     0
100
AcDbPoint
 10
41.25
 20
50.0
 30
0.0
  0
ENDBLK
  5
403
330
3F8
100
AcDbEntity
  8
0
100
AcDbBlockEnd
  0
BLOCK
  5
40E
330
404
100
AcDbEntity
  8
0
100
AcDbBlockBegin
  2
*D5
 70
     1
 10
0.0
 20
0.0
 30
0.0
  3
*D5
  1

  0
LINE
  5
405
330
404
100
AcDbEntity
  8
寸法線
 62
     0
100
AcDbLine
 10
49.375
 20
100.0
 30
0.0
 11
44.00000000000001
 21
100.0
 31
0.0
  0
LINE
  5
406
330
404
100
AcDbEntity
  8
寸法線
 62
     0
100
AcDbLine
 10
49.375
 20
90.0
 30
0.0
 11
44.00000000000001
 21
90.0
 31
0.0
  0
LINE
  5
407
330
404
100
AcDbEntity
  8
寸法線
 62
     0
100
AcDbLine
 10
45.25000000000001
 20
97.5
 30
0.0
 11
45.25000000000001
 21
92.5
 31
0.0
  0
SOLID
  5
408
330
404
100
AcDbEntity
  8
寸法線
 62
     0
100
AcDbTrace
 10
44.83333333333335
 20
97.5
 30
0.0
 11
45.66666666666668
 21
97.5
 31
0.0
 12
45.25000000000001
 22
100.0
 32
0.0
 13
45.25000000000001
 23
100.0
 33
0.0
  0
SOLID
  5
409
330
404
100
AcDbEntity
  8
寸法線
 62
     0
100
AcDbTrace
 10
44.83333333333335
 20
92.5
 30
0.0
 11
45.66666666666668
 21
92.5
 31
0.0
 12
45.25000000000001
 22
90.0
 32
0.0
 13
45.25000000000001
 23
90.0
 33
0.0
  0
MTEXT
  5
40A
330
404
100
AcDbEntity
  8
寸法線
 62
     0
100
AcDbMText
 10
43.375
 20
94.74999999999999
 30
0.0
 40
2.5
 41
0.0
 71
     5
 72
     5
  1
10
 11
0.0000000000000001
 21
1.0
 31
0.0
 73
     1
 44
1.0
1001
ACAD
1000
MTEXTBEGIN
1070
    73
1070
     1
1070
    44
1040
1.0
1070
    74
1070
     0
1000
MTEXTEND
  0
POINT
  5
40B
330
404
100
AcDbEntity
  8
DEFPOINTS
 62
     0
100
AcDbPoint
 10
50.0
 20
100.0
 30
0.0
  0
POINT
  5
40C
330
404
100
AcDbEntity
  8
DEFPOINTS
 62
     0
100
AcDbPoint
 10
50.0
 20
90.0
 30
0.0
  0
POINT
  5
40D
330
404
100
AcDbEntity
  8
DEFPOINTS
 62
     0
100
AcDbPoint
 10
45.25000000000001
 20
90.0
 30
0.0
  0
ENDBLK
  5
40F
330
404
100
AcDbEntity
  8
0
100
AcDbBlockEnd
  0
BLOCK
  5
41A
330
410
100
AcDbEntity
  8
0
100
AcDbBlockBegin
  2
*D6
 70
     1
 10
0.0
 20
0.0
 30
0.0
  3
*D6
  1

  0
LINE
  5
411
330
410
100
AcDbEntity
  8
寸法線
  6
Continuous
 62
     0
100
AcDbLine
 10
57.0
 20
100.625
 30
0.0
 11
57.0
 21
115.0
 31
0.0
  0
LINE
  5
412
330
410
100
AcDbEntity
  8
寸法線
  6
Continuous
 62
     0
100
AcDbLine
 10
181.0
 20
100.625
 30
0.0
 11
181.0
 21
115.0
 31
0.0
  0
LINE
  5
413
330
410
100
AcDbEntity
  8
寸法線
  6
Continuous
 62
     0
100
AcDbLine
 10
59.5
 20
113.7499999999999
 30
0.0
 11
178.5
 21
113.7499999999999
 31
0.0
  0
SOLID
  5
414
330
410
100
AcDbEntity
  8
寸法線
  6
Continuous
 62
     0
100
AcDbTrace
 10
59.5
 20
114.1666666666666
 30
0.0
 11
59.5
 21
113.3333333333333
 31
0.0
 12
57.0
 22
113.7499999999999
 32
0.0
 13
57.0
 23
113.7499999999999
 33
0.0
  0
SOLID
  5
415
330
410
100
AcDbEntity
  8
寸法線
  6
Continuous
 62
     0
100
AcDbTrace
 10
178.5
 20
114.1666666666666
 30
0.0
 11
178.5
 21
113.3333333333333
 31
0.0
 12
181.0
 22
113.7499999999999
 32
0.0
 13
181.0
 23
113.7499999999999
 33
0.0
  0
MTEXT
  5
416
330
410
100
AcDbEntity
  8
寸法線
  6
Continuous
 62
     0
100
AcDbMText
 10
119.0
 20
115.625
 30
0.0
 40
2.5
 41
0.0
 71
     5
 72
     5
  1
124
 73
     1
 44
1.0
1001
ACAD
1000
MTEXTBEGIN
1070
    73
1070
     1
1070
    44
1040
1.0
1070
    74
1070
     0
1000
MTEXTEND
  0
POINT
  5
417
330
410
100
AcDbEntity
  8
DEFPOINTS
  6
Continuous
 62
     0
100
AcDbPoint
 10
57.0
 20
100.0
 30
0.0
  0
POINT
  5
418
330
410
100
AcDbEntity
  8
DEFPOINTS
  6
Continuous
 62
     0
100
AcDbPoint
 10
181.0
 20
100.0
 30
0.0
  0
POINT
  5
419
330
410
100
AcDbEntity
  8
DEFPOINTS
  6
Continuous
 62
     0
100
AcDbPoint
 10
181.0
 20
113.7499999999999
 30
0.0
  0
ENDBLK
  5
41B
330
410
100
AcDbEntity
  8
0
100
AcDbBlockEnd
  0
BLOCK
  5
426
330
41C
100
AcDbEntity
  8
0
100
AcDbBlockBegin
  2
*D7
 70
     1
 10
0.0
 20
0.0
 30
0.0
  3
*D7
  1

  0
LINE
  5
41D
330
41C
100
AcDbEntity
  8
寸法線
  6
Continuous
 62
     0
100
AcDbLine
 10
57.0
 20
100.625
 30
0.0
 11
57.0
 21
107.25
 31
0.0
  0
LINE
  5
41E
330
41C
100
AcDbEntity
  8
寸法線
  6
Continuous
 62
     0
100
AcDbLine
 10
67.0
 20
100.625
 30
0.0
 11
67.0
 21
107.25
 31
0.0
  0
LINE
  5
41F
330
41C
100
AcDbEntity
  8
寸法線
  6
Continuous
 62
     0
100
AcDbLine
 10
59.5
 20
106.0
 30
0.0
 11
64.5
 21
106.0
 31
0.0
  0
SOLID
  5
420
330
41C
100
AcDbEntity
  8
寸法線
  6
Continuous
 62
     0
100
AcDbTrace
 10
59.5
 20
106.4166666666666
 30
0.0
 11
59.5
 21
105.5833333333333
 31
0.0
 12
57.0
 22
106.0
 32
0.0
 13
57.0
 23
106.0
 33
0.0
  0
SOLID
  5
421
330
41C
100
AcDbEntity
  8
寸法線
  6
Continuous
 62
     0
100
AcDbTrace
 10
64.5
 20
106.4166666666666
 30
0.0
 11
64.5
 21
105.5833333333333
 31
0.0
 12
67.0
 22
106.0
 32
0.0
 13
67.0
 23
106.0
 33
0.0
  0
MTEXT
  5
422
330
41C
100
AcDbEntity
  8
寸法線
  6
Continuous
 62
     0
100
AcDbMText
 10
62.25
 20
107.875
 30
0.0
 40
2.5
 41
0.0
 71
     5
 72
     5
  1
10
 73
     1
 44
1.0
1001
ACAD
1000
MTEXTBEGIN
1070
    73
1070
     1
1070
    44
1040
1.0
1070
    74
1070
     0
1000
MTEXTEND
  0
POINT
  5
423
330
41C
100
AcDbEntity
  8
DEFPOINTS
  6
Continuous
 62
     0
100
AcDbPoint
 10
57.0
 20
100.0
 30
0.0
  0
POINT
  5
424
330
41C
100
AcDbEntity
  8
DEFPOINTS
  6
Continuous
 62
     0
100
AcDbPoint
 10
67.0
 20
100.0
 30
0.0
  0
POINT
  5
425
330
41C
100
AcDbEntity
  8
DEFPOINTS
  6
Continuous
 62
     0
100
AcDbPoint
 10
67.0
 20
106.0
 30
0.0
  0
ENDBLK
  5
427
330
41C
100
AcDbEntity
  8
0
100
AcDbBlockEnd
  0
BLOCK
  5
432
330
428
100
AcDbEntity
  8
0
100
AcDbBlockBegin
  2
*D8
 70
     1
 10
0.0
 20
0.0
 30
0.0
  3
*D8
  1

  0
LINE
  5
429
330
428
100
AcDbEntity
  8
寸法線
  6
Continuous
 62
     0
100
AcDbLine
 10
50.0
 20
49.375
 30
0.0
 11
50.0
 21
27.25
 31
0.0
  0
LINE
  5
42A
330
428
100
AcDbEntity
  8
寸法線
  6
Continuous
 62
     0
100
AcDbLine
 10
78.0
 20
49.375
 30
0.0
 11
78.0
 21
27.25
 31
0.0
  0
LINE
  5
42B
330
428
100
AcDbEntity
  8
寸法線
  6
Continuous
 62
     0
100
AcDbLine
 10
52.5
 20
28.5
 30
0.0
 11
75.5
 21
28.5
 31
0.0
  0
SOLID
  5
42C
330
428
100
AcDbEntity
  8
寸法線
  6
Continuous
 62
     0
100
AcDbTrace
 10
52.5
 20
28.91666666666667
 30
0.0
 11
52.5
 21
28.08333333333333
 31
0.0
 12
50.0
 22
28.5
 32
0.0
 13
50.0
 23
28.5
 33
0.0
  0
SOLID
  5
42D
330
428
100
AcDbEntity
  8
寸法線
  6
Continuous
 62
     0
100
AcDbTrace
 10
75.5
 20
28.91666666666667
 30
0.0
 11
75.5
 21
28.08333333333333
 31
0.0
 12
78.0
 22
28.5
 32
0.0
 13
78.0
 23
28.5
 33
0.0
  0
MTEXT
  5
42E
330
428
100
AcDbEntity
  8
寸法線
  6
Continuous
 62
     0
100
AcDbMText
 10
64.0
 20
30.375
 30
0.0
 40
2.5
 41
0.0
 71
     5
 72
     5
  1
28
 73
     1
 44
1.0
1001
ACAD
1000
MTEXTBEGIN
1070
    73
1070
     1
1070
    44
1040
1.0
1070
    74
1070
     0
1000
MTEXTEND
  0
POINT
  5
42F
330
428
100
AcDbEntity
  8
DEFPOINTS
  6
Continuous
 62
     0
100
AcDbPoint
 10
50.0
 20
50.0
 30
0.0
  0
POINT
  5
430
330
428
100
AcDbEntity
  8
DEFPOINTS
  6
Continuous
 62
     0
100
AcDbPoint
 10
78.0
 20
50.0
 30
0.0
  0
POINT
  5
431
330
428
100
AcDbEntity
  8
DEFPOINTS
  6
Continuous
 62
     0
100
AcDbPoint
 10
78.0
 20
28.5
 30
0.0
  0
ENDBLK
  5
433
330
428
100
AcDbEntity
  8
0
100
AcDbBlockEnd
  0
BLOCK
  5
43E
330
434
100
AcDbEntity
  8
0
100
AcDbBlockBegin
  2
*D9
 70
     1
 10
0.0
 20
0.0
 30
0.0
  3
*D9
  1

  0
LINE
  5
435
330
434
100
AcDbEntity
  8
寸法線
  6
Continuous
 62
     0
100
AcDbLine
 10
57.0
 20
49.375
 30
0.0
 11
57.0
 21
18.25
 31
0.0
  0
LINE
  5
436
330
434
100
AcDbEntity
  8
寸法線
  6
Continuous
 62
     0
100
AcDbLine
 10
50.0
 20
49.375
 30
0.0
 11
50.0
 21
18.25
 31
0.0
  0
LINE
  5
437
330
434
100
AcDbEntity
  8
寸法線
  6
Continuous
 62
     0
100
AcDbLine
 10
54.5
 20
19.5
 30
0.0
 11
52.5
 21
19.5
 31
0.0
  0
SOLID
  5
438
330
434
100
AcDbEntity
  8
寸法線
  6
Continuous
 62
     0
100
AcDbTrace
 10
54.5
 20
19.91666666666666
 30
0.0
 11
54.5
 21
19.08333333333333
 31
0.0
 12
57.0
 22
19.5
 32
0.0
 13
57.0
 23
19.5
 33
0.0
  0
SOLID
  5
439
330
434
100
AcDbEntity
  8
寸法線
  6
Continuous
 62
     0
100
AcDbTrace
 10
52.5
 20
19.91666666666666
 30
0.0
 11
52.5
 21
19.08333333333333
 31
0.0
 12
50.0
 22
19.5
 32
0.0
 13
50.0
 23
19.5
 33
0.0
  0
MTEXT
  5
43A
330
434
100
AcDbEntity
  8
寸法線
  6
Continuous
 62
     0
100
AcDbMText
 10
53.5
 20
21.375
 30
0.0
 40
2.5
 41
0.0
 71
     5
 72
     5
  1
7
 73
     1
 44
1.0
1001
ACAD
1000
MTEXTBEGIN
1070
    73
1070
     1
1070
    44
1040
1.0
1070
    74
1070
     0
1000
MTEXTEND
  0
POINT
  5
43B
330
434
100
AcDbEntity
  8
DEFPOINTS
  6
Continuous
 62
     0
100
AcDbPoint
 10
57.0
 20
50.0
 30
0.0
  0
POINT
  5
43C
330
434
100
AcDbEntity
  8
DEFPOINTS
  6
Continuous
 62
     0
100
AcDbPoint
 10
50.0
 20
50.0
 30
0.0
  0
POINT
  5
43D
330
434
100
AcDbEntity
  8
DEFPOINTS
  6
Continuous
 62
     0
100
AcDbPoint
 10
50.0
 20
19.5
 30
0.0
  0
ENDBLK
  5
43F
330
434
100
AcDbEntity
  8
0
100
AcDbBlockEnd
  0
BLOCK
  5
44A
330
440
100
AcDbEntity
  8
0
100
AcDbBlockBegin
  2
*D10
 70
     1
 10
0.0
 20
0.0
 30
0.0
  3
*D10
  1

  0
LINE
  5
441
330
440
100
AcDbEntity
  8
寸法線
  6
Continuous
 62
     0
100
AcDbLine
 10
57.0
 20
49.375
 30
0.0
 11
57.0
 21
18.0
 31
0.0
  0
LINE
  5
442
330
440
100
AcDbEntity
  8
寸法線
  6
Continuous
 62
     0
100
AcDbLine
 10
152.0
 20
47.075
 30
0.0
 11
152.0
 21
18.0
 31
0.0
  0
LINE
  5
443
330
440
100
AcDbEntity
  8
寸法線
  6
Continuous
 62
     0
100
AcDbLine
 10
59.5
 20
19.25
 30
0.0
 11
149.5
 21
19.25
 31
0.0
  0
SOLID
  5
444
330
440
100
AcDbEntity
  8
寸法線
  6
Continuous
 62
     0
100
AcDbTrace
 10
59.5
 20
19.66666666666666
 30
0.0
 11
59.5
 21
18.83333333333333
 31
0.0
 12
57.0
 22
19.25
 32
0.0
 13
57.0
 23
19.25
 33
0.0
  0
SOLID
  5
445
330
440
100
AcDbEntity
  8
寸法線
  6
Continuous
 62
     0
100
AcDbTrace
 10
149.5
 20
19.66666666666666
 30
0.0
 11
149.5
 21
18.83333333333333
 31
0.0
 12
152.0
 22
19.25
 32
0.0
 13
152.0
 23
19.25
 33
0.0
  0
MTEXT
  5
446
330
440
100
AcDbEntity
  8
寸法線
  6
Continuous
 62
     0
100
AcDbMText
 10
107.0
 20
21.125
 30
0.0
 40
2.5
 41
0.0
 71
     5
 72
     5
  1
95
 73
     1
 44
1.0
1001
ACAD
1000
MTEXTBEGIN
1070
    73
1070
     1
1070
    44
1040
1.0
1070
    74
1070
     0
1000
MTEXTEND
  0
POINT
  5
447
330
440
100
AcDbEntity
  8
DEFPOINTS
  6
Continuous
 62
     0
100
AcDbPoint
 10
57.0
 20
50.0
 30
0.0
  0
POINT
  5
448
330
440
100
AcDbEntity
  8
DEFPOINTS
  6
Continuous
 62
     0
100
AcDbPoint
 10
152.0
 20
47.7
 30
0.0
  0
POINT
  5
449
330
440
100
AcDbEntity
  8
DEFPOINTS
  6
Continuous
 62
     0
100
AcDbPoint
 10
152.0
 20
19.25
 30
0.0
  0
ENDBLK
  5
44B
330
440
100
AcDbEntity
  8
0
100
AcDbBlockEnd
  0
BLOCK
  5
456
330
44C
100
AcDbEntity
  8
0
100
AcDbBlockBegin
  2
*D11
 70
     1
 10
0.0
 20
0.0
 30
0.0
  3
*D11
  1

  0
LINE
  5
44D
330
44C
100
AcDbEntity
  8
寸法線
  6
Continuous
 62
     0
100
AcDbLine
 10
152.0
 20
46.45
 30
0.0
 11
152.0
 21
27.75
 31
0.0
  0
LINE
  5
44E
330
44C
100
AcDbEntity
  8
寸法線
  6
Continuous
 62
     0
100
AcDbLine
 10
142.0
 20
49.375
 30
0.0
 11
142.0
 21
27.75
 31
0.0
  0
LINE
  5
44F
330
44C
100
AcDbEntity
  8
寸法線
  6
Continuous
 62
     0
100
AcDbLine
 10
149.5
 20
29.0
 30
0.0
 11
144.5
 21
29.0
 31
0.0
  0
SOLID
  5
450
330
44C
100
AcDbEntity
  8
寸法線
  6
Continuous
 62
     0
100
AcDbTrace
 10
149.5
 20
29.41666666666666
 30
0.0
 11
149.5
 21
28.58333333333333
 31
0.0
 12
152.0
 22
29.0
 32
0.0
 13
152.0
 23
29.0
 33
0.0
  0
SOLID
  5
451
330
44C
100
AcDbEntity
  8
寸法線
  6
Continuous
 62
     0
100
AcDbTrace
 10
144.5
 20
29.41666666666666
 30
0.0
 11
144.5
 21
28.58333333333333
 31
0.0
 12
142.0
 22
29.0
 32
0.0
 13
142.0
 23
29.0
 33
0.0
  0
MTEXT
  5
452
330
44C
100
AcDbEntity
  8
寸法線
  6
Continuous
 62
     0
100
AcDbMText
 10
147.0
 20
30.875
 30
0.0
 40
2.5
 41
0.0
 71
     5
 72
     5
  1
10
 73
     1
 44
1.0
1001
ACAD
1000
MTEXTBEGIN
1070
    73
1070
     1
1070
    44
1040
1.0
1070
    74
1070
     0
1000
MTEXTEND
  0
POINT
  5
453
330
44C
100
AcDbEntity
  8
DEFPOINTS
  6
Continuous
 62
     0
100
AcDbPoint
 10
152.0
 20
47.075
 30
0.0
  0
POINT
  5
454
330
44C
100
AcDbEntity
  8
DEFPOINTS
  6
Continuous
 62
     0
100
AcDbPoint
 10
142.0
 20
50.0
 30
0.0
  0
POINT
  5
455
330
44C
100
AcDbEntity
  8
DEFPOINTS
  6
Continuous
 62
     0
100
AcDbPoint
 10
142.0
 20
29.0
 30
0.0
  0
ENDBLK
  5
457
330
44C
100
AcDbEntity
  8
0
100
AcDbBlockEnd
  0
BLOCK
  5
462
330
458
100
AcDbEntity
  8
0
100
AcDbBlockBegin
  2
*D12
 70
     1
 10
0.0
 20
0.0
 30
0.0
  3
*D12
  1

  0
LINE
  5
459
330
458
100
AcDbEntity
  8
寸法線
  6
Continuous
 62
     0
100
AcDbLine
 10
152.0
 20
45.825
 30
0.0
 11
152.0
 21
23.5
 31
0.0
  0
LINE
  5
45A
330
458
100
AcDbEntity
  8
寸法線
  6
Continuous
 62
     0
100
AcDbLine
 10
117.0
 20
47.075
 30
0.0
 11
117.0
 21
23.5
 31
0.0
  0
LINE
  5
45B
330
458
100
AcDbEntity
  8
寸法線
  6
Continuous
 62
     0
100
AcDbLine
 10
149.5
 20
24.75
 30
0.0
 11
119.5
 21
24.75
 31
0.0
  0
SOLID
  5
45C
330
458
100
AcDbEntity
  8
寸法線
  6
Continuous
 62
     0
100
AcDbTrace
 10
149.5
 20
25.16666666666667
 30
0.0
 11
149.5
 21
24.33333333333333
 31
0.0
 12
152.0
 22
24.75
 32
0.0
 13
152.0
 23
24.75
 33
0.0
  0
SOLID
  5
45D
330
458
100
AcDbEntity
  8
寸法線
  6
Continuous
 62
     0
100
AcDbTrace
 10
119.5
 20
25.16666666666667
 30
0.0
 11
119.5
 21
24.33333333333333
 31
0.0
 12
117.0
 22
24.75
 32
0.0
 13
117.0
 23
24.75
 33
0.0
  0
MTEXT
  5
45E
330
458
100
AcDbEntity
  8
寸法線
  6
Continuous
 62
     0
100
AcDbMText
 10
134.4999999999999
 20
26.625
 30
0.0
 40
2.5
 41
0.0
 71
     5
 72
     5
  1
35
 73
     1
 44
1.0
1001
ACAD
1000
MTEXTBEGIN
1070
    73
1070
     1
1070
    44
1040
1.0
1070
    74
1070
     0
1000
MTEXTEND
  0
POINT
  5
45F
330
458
100
AcDbEntity
  8
DEFPOINTS
  6
Continuous
 62
     0
100
AcDbPoint
 10
152.0
 20
46.45
 30
0.0
  0
POINT
  5
460
330
458
100
AcDbEntity
  8
DEFPOINTS
  6
Continuous
 62
     0
100
AcDbPoint
 10
117.0
 20
47.7
 30
0.0
  0
POINT
  5
461
330
458
100
AcDbEntity
  8
DEFPOINTS
  6
Continuous
 62
     0
100
AcDbPoint
 10
117.0
 20
24.75
 30
0.0
  0
ENDBLK
  5
463
330
458
100
AcDbEntity
  8
0
100
AcDbBlockEnd
  0
BLOCK
  5
46F
330
464
100
AcDbEntity
  8
0
100
AcDbBlockBegin
  2
*D13
 70
     1
 10
0.0
 20
0.0
 30
0.0
  3
*D13
  1

  0
LINE
  5
465
330
464
100
AcDbEntity
  8
寸法線
  6
Continuous
 62
     0
100
AcDbLine
 10
127.3414366748532
 20
39.65856332514674
 30
0.0
 11
133.2309108759504
 21
33.76908912404952
 31
0.0
  0
ARC
  5
466
330
464
100
AcDbEntity
  8
寸法線
  6
Continuous
 62
     0
100
AcDbCircle
 10
116.9999999999999
 20
50.0
 30
0.0
 40
21.70397429043815
100
AcDbArc
 50
321.603341494624
 51
353.3966585053759
  0
SOLID
  5
467
330
464
100
AcDbEntity
  8
寸法線
  6
Continuous
 62
     0
100
AcDbTrace
 10
134.321156180442
 20
36.24244630815996
 30
0.0
 11
133.698941530348
 21
36.7967867934692
 31
0.0
 12
132.3470273994672
 22
34.65297260053272
 32
0.0
 13
132.3470273994672
 23
34.65297260053272
 33
0.0
  0
SOLID
  5
468
330
464
100
AcDbEntity
  8
寸法線
  6
Continuous
 62
     0
100
AcDbTrace
 10
138.1440163865365
 20
47.52814679704289
 30
0.0
 11
138.9759665012199
 21
47.48015251485627
 31
0.0
 12
138.7039742904381
 22
50.0
 32
0.0
 13
138.7039742904381
 23
50.0
 33
0.0
  0
MTEXT
  5
469
330
464
100
AcDbEntity
  8
寸法線
  6
Continuous
 62
     0
100
AcDbMText
 10
135.0438032682652
 20
41.77750737142342
 30
0.0
 40
2.5
 41
0.0
 71
     5
 72
     5
  1
45°
 11
0.4146705980924894
 21
0.9099715902585188
 31
0.0
 73
     1
 44
1.0
1001
ACAD
1000
MTEXTBEGIN
1070
    73
1070
     1
1070
    44
1040
1.0
1070
    74
1070
     0
1000
MTEXTEND
  0
POINT
  5
46A
330
464
100
AcDbEntity
  8
DEFPOINTS
  6
Continuous
 62
     0
100
AcDbPoint
 10
137.9644293002481
 20
44.38259809921913
 30
0.0
  0
POINT
  5
46B
330
464
100
AcDbEntity
  8
DEFPOINTS
  6
Continuous
 62
     0
100
AcDbPoint
 10
50.0
 20
50.0
 30
0.0
  0
POINT
  5
46C
330
464
100
AcDbEntity
  8
DEFPOINTS
  6
Continuous
 62
     0
100
AcDbPoint
 10
116.9999999999999
 20
50.0
 30
0.0
  0
POINT
  5
46D
330
464
100
AcDbEntity
  8
DEFPOINTS
  6
Continuous
 62
     0
100
AcDbPoint
 10
126.8994949366116
 20
40.10050506338834
 30
0.0
  0
POINT
  5
46E
330
464
100
AcDbEntity
  8
DEFPOINTS
  6
Continuous
 62
     0
100
AcDbPoint
 10
141.9999999999999
 20
50.0
 30
0.0
  0
ENDBLK
  5
470
330
464
100
AcDbEntity
  8
0
100
AcDbBlockEnd
  0
BLOCK
  5
47B
330
471
100
AcDbEntity
  8
0
100
AcDbBlockBegin
  2
*D14
 70
     1
 10
0.0
 20
0.0
 30
0.0
  3
*D14
  1

  0
LINE
  5
472
330
471
100
AcDbEntity
  8
寸法線
  6
Continuous
 62
     0
100
AcDbLine
 10
117.4419417382415
 20
50.44194173824157
 30
0.0
 11
133.0088834764832
 21
66.00888347648314
 31
0.0
  0
LINE
  5
473
330
471
100
AcDbEntity
  8
寸法線
  6
Continuous
 62
     0
100
AcDbLine
 10
127.7833784130947
 20
40.1005050633883
 30
0.0
 11
143.3503201513364
 21
55.66744680162987
 31
0.0
  0
LINE
  5
474
330
471
100
AcDbEntity
  8
寸法線
  6
Continuous
 62
     0
100
AcDbLine
 10
133.8927669529663
 20
63.35723304703357
 30
0.0
 11
140.6986697218868
 21
56.55133027811306
 31
0.0
  0
SOLID
  5
475
330
471
100
AcDbEntity
  8
寸法線
  6
Continuous
 62
     0
100
AcDbTrace
 10
134.1873947784607
 20
63.65186087252797
 30
0.0
 11
133.598139127472
 21
63.0626052215392
 31
0.0
 12
132.125
 22
65.12499999999995
 32
0.0
 13
132.125
 23
65.12499999999995
 33
0.0
  0
SOLID
  5
476
330
471
100
AcDbEntity
  8
寸法線
  6
Continuous
 62
     0
100
AcDbTrace
 10
140.9932975473812
 20
56.84595810360743
 30
0.0
 11
140.4040418963925
 21
56.25670245261868
 31
0.0
 12
142.4664366748532
 22
54.78356332514668
 32
0.0
 13
142.4664366748532
 23
54.78356332514668
 33
0.0
  0
MTEXT
  5
477
330
471
100
AcDbEntity
  8
寸法線
  6
Continuous
 62
     0
100
AcDbMText
 10
138.6215435521514
 20
61.28010687729809
 30
0.0
 40
2.5
 41
0.0
 71
     5
 72
     5
  1
14
 11
0.7071067811865461
 21
-0.7071067811865492
 31
0.0
 73
     1
 44
1.0
1001
ACAD
1000
MTEXTBEGIN
1070
    73
1070
     1
1070
    44
1040
1.0
1070
    74
1070
     0
1000
MTEXTEND
  0
POINT
  5
478
330
471
100
AcDbEntity
  8
DEFPOINTS
  6
Continuous
 62
     0
100
AcDbPoint
 10
116.9999999999999
 20
50.0
 30
0.0
  0
POINT
  5
479
330
471
100
AcDbEntity
  8
DEFPOINTS
  6
Continuous
 62
     0
100
AcDbPoint
 10
127.3414366748532
 20
39.65856332514672
 30
0.0
  0
POINT
  5
47A
330
471
100
AcDbEntity
  8
DEFPOINTS
  6
Continuous
 62
     0
100
AcDbPoint
 10
142.4664366748532
 20
54.78356332514668
 30
0.0
  0
ENDBLK
  5
47C
330
471
100
AcDbEntity
  8
0
100
AcDbBlockEnd
  0
BLOCK
  5
487
330
47D
100
AcDbEntity
  8
0
100
AcDbBlockBegin
  2
*D15
 70
     1
 10
0.0
 20
0.0
 30
0.0
  3
*D15
  1

  0
LINE
  5
47E
330
47D
100
AcDbEntity
  8
寸法線
  6
Continuous
 62
     0
100
AcDbLine
 10
63.87500000000001
 20
145.7
 30
0.0
 11
42.25
 21
145.7
 31
0.0
  0
LINE
  5
47F
330
47D
100
AcDbEntity
  8
寸法線
  6
Continuous
 62
     0
100
AcDbLine
 10
49.375
 20
157.6999999999999
 30
0.0
 11
42.25
 21
157.6999999999999
 31
0.0
  0
LINE
  5
480
330
47D
100
AcDbEntity
  8
寸法線
  6
Continuous
 62
     0
100
AcDbLine
 10
43.5
 20
148.2
 30
0.0
 11
43.5
 21
155.1999999999999
 31
0.0
  0
SOLID
  5
481
330
47D
100
AcDbEntity
  8
寸法線
  6
Continuous
 62
     0
100
AcDbTrace
 10
43.08333333333332
 20
148.2
 30
0.0
 11
43.91666666666665
 21
148.2
 31
0.0
 12
43.5
 22
145.7
 32
0.0
 13
43.5
 23
145.7
 33
0.0
  0
SOLID
  5
482
330
47D
100
AcDbEntity
  8
寸法線
  6
Continuous
 62
     0
100
AcDbTrace
 10
43.08333333333332
 20
155.1999999999999
 30
0.0
 11
43.91666666666665
 21
155.1999999999999
 31
0.0
 12
43.5
 22
157.6999999999999
 32
0.0
 13
43.5
 23
157.6999999999999
 33
0.0
  0
MTEXT
  5
483
330
47D
100
AcDbEntity
  8
寸法線
  6
Continuous
 62
     0
100
AcDbMText
 10
41.62499999999996
 20
151.6999999999999
 30
0.0
 40
2.5
 41
0.0
 71
     5
 72
     5
  1
12
 11
0.0000000000000001
 21
1.0
 31
0.0
 73
     1
 44
1.0
1001
ACAD
1000
MTEXTBEGIN
1070
    73
1070
     1
1070
    44
1040
1.0
1070
    74
1070
     0
1000
MTEXTEND
  0
POINT
  5
484
330
47D
100
AcDbEntity
  8
DEFPOINTS
  6
Continuous
 62
     0
100
AcDbPoint
 10
64.5
 20
145.6999999999999
 30
0.0
  0
POINT
  5
485
330
47D
100
AcDbEntity
  8
DEFPOINTS
  6
Continuous
 62
     0
100
AcDbPoint
 10
50.0
 20
157.6999999999999
 30
0.0
  0
POINT
  5
486
330
47D
100
AcDbEntity
  8
DEFPOINTS
  6
Continuous
 62
     0
100
AcDbPoint
 10
43.5
 20
157.6999999999999
 30
0.0
  0
ENDBLK
  5
488
330
47D
100
AcDbEntity
  8
0
100
AcDbBlockEnd
  0
BLOCK
  5
493
330
489
100
AcDbEntity
  8
0
100
AcDbBlockBegin
  2
*D16
 70
     1
 10
0.0
 20
0.0
 30
0.0
  3
*D16
  1

  0
LINE
  5
48A
330
489
100
AcDbEntity
  8
寸法線
  6
Continuous
 62
     0
100
AcDbLine
 10
48.75
 20
157.6999999999999
 30
0.0
 11
43.49999999999993
 21
157.6999999999999
 31
0.0
  0
LINE
  5
48B
330
489
100
AcDbEntity
  8
寸法線
  6
Continuous
 62
     0
100
AcDbLine
 10
49.375
 20
462.6999999999998
 30
0.0
 11
43.5
 21
462.6999999999998
 31
0.0
  0
LINE
  5
48C
330
489
100
AcDbEntity
  8
寸法線
  6
Continuous
 62
     0
100
AcDbLine
 10
44.74999999999993
 20
160.1999999999999
 30
0.0
 11
44.75
 21
460.2
 31
0.0
  0
SOLID
  5
48D
330
489
100
AcDbEntity
  8
寸法線
  6
Continuous
 62
     0
100
AcDbTrace
 10
44.33333333333329
 20
160.1999999999999
 30
0.0
 11
45.16666666666661
 21
160.1999999999999
 31
0.0
 12
44.74999999999993
 22
157.6999999999999
 32
0.0
 13
44.74999999999993
 23
157.6999999999999
 33
0.0
  0
SOLID
  5
48E
330
489
100
AcDbEntity
  8
寸法線
  6
Continuous
 62
     0
100
AcDbTrace
 10
44.33333333333334
 20
460.2
 30
0.0
 11
45.16666666666667
 21
460.2
 31
0.0
 12
44.75
 22
462.6999999999998
 32
0.0
 13
44.75
 23
462.6999999999998
 33
0.0
  0
MTEXT
  5
48F
330
489
100
AcDbEntity
  8
寸法線
  6
Continuous
 62
     0
100
AcDbMText
 10
42.47727272727265
 20
310.1999999999999
 30
0.0
 40
2.5
 41
0.0
 71
     5
 72
     5
  1
{\FMS UI Gothic.ttf;バケットのＢ寸法現合約305}
 11
0.0000000000000001
 21
1.0
 31
0.0
 73
     1
 44
1.0
1001
ACAD
1000
MTEXTBEGIN
1070
    73
1070
     1
1070
    44
1040
1.0
1070
    74
1070
     0
1000
MTEXTEND
  0
POINT
  5
490
330
489
100
AcDbEntity
  8
DEFPOINTS
  6
Continuous
 62
     0
100
AcDbPoint
 10
49.375
 20
157.6999999999999
 30
0.0
  0
POINT
  5
491
330
489
100
AcDbEntity
  8
DEFPOINTS
  6
Continuous
 62
     0
100
AcDbPoint
 10
50.0
 20
462.6999999999998
 30
0.0
  0
POINT
  5
492
330
489
100
AcDbEntity
  8
DEFPOINTS
  6
Continuous
 62
     0
100
AcDbPoint
 10
44.75
 20
462.6999999999998
 30
0.0
  0
ENDBLK
  5
494
330
489
100
AcDbEntity
  8
0
100
AcDbBlockEnd
  0
BLOCK
  5
49F
330
495
100
AcDbEntity
  8
0
100
AcDbBlockBegin
  2
*D17
 70
     1
 10
0.0
 20
0.0
 30
0.0
  3
*D17
  1

  0
LINE
  5
496
330
495
100
AcDbEntity
  8
寸法線
  6
Continuous
 62
     0
100
AcDbLine
 10
44.125
 20
462.6999999999998
 30
0.0
 11
43.49999999999999
 21
462.6999999999998
 31
0.0
  0
LINE
  5
497
330
495
100
AcDbEntity
  8
寸法線
  6
Continuous
 62
     0
100
AcDbLine
 10
63.87500000000001
 20
474.6999999999998
 30
0.0
 11
43.5
 21
474.6999999999998
 31
0.0
  0
LINE
  5
498
330
495
100
AcDbEntity
  8
寸法線
  6
Continuous
 62
     0
100
AcDbLine
 10
44.75
 20
465.2
 30
0.0
 11
44.75
 21
472.2
 31
0.0
  0
SOLID
  5
499
330
495
100
AcDbEntity
  8
寸法線
  6
Continuous
 62
     0
100
AcDbTrace
 10
44.33333333333332
 20
465.2
 30
0.0
 11
45.16666666666665
 21
465.2
 31
0.0
 12
44.74999999999999
 22
462.6999999999998
 32
0.0
 13
44.74999999999999
 23
462.6999999999998
 33
0.0
  0
SOLID
  5
49A
330
495
100
AcDbEntity
  8
寸法線
  6
Continuous
 62
     0
100
AcDbTrace
 10
44.33333333333332
 20
472.2
 30
0.0
 11
45.16666666666665
 21
472.2
 31
0.0
 12
44.75
 22
474.6999999999998
 32
0.0
 13
44.75
 23
474.6999999999998
 33
0.0
  0
MTEXT
  5
49B
330
495
100
AcDbEntity
  8
寸法線
  6
Continuous
 62
     0
100
AcDbMText
 10
42.87499999999992
 20
468.7
 30
0.0
 40
2.5
 41
0.0
 71
     5
 72
     5
  1
12
 11
0.0000000000000001
 21
1.0
 31
0.0
 73
     1
 44
1.0
1001
ACAD
1000
MTEXTBEGIN
1070
    73
1070
     1
1070
    44
1040
1.0
1070
    74
1070
     0
1000
MTEXTEND
  0
POINT
  5
49C
330
495
100
AcDbEntity
  8
DEFPOINTS
  6
Continuous
 62
     0
100
AcDbPoint
 10
44.75
 20
462.6999999999998
 30
0.0
  0
POINT
  5
49D
330
495
100
AcDbEntity
  8
DEFPOINTS
  6
Continuous
 62
     0
100
AcDbPoint
 10
64.5
 20
474.6999999999998
 30
0.0
  0
POINT
  5
49E
330
495
100
AcDbEntity
  8
DEFPOINTS
  6
Continuous
 62
     0
100
AcDbPoint
 10
44.75
 20
474.6999999999998
 30
0.0
  0
ENDBLK
  5
4A0
330
495
100
AcDbEntity
  8
0
100
AcDbBlockEnd
  0
BLOCK
  5
4AB
330
4A1
100
AcDbEntity
  8
0
100
AcDbBlockBegin
  2
*D18
 70
     1
 10
0.0
 20
0.0
 30
0.0
  3
*D18
  1

  0
LINE
  5
4A2
330
4A1
100
AcDbEntity
  8
寸法線
  6
Continuous
 62
     0
100
AcDbLine
 10
102.3749999999999
 20
450.1999999999998
 30
0.0
 11
86.25000000000005
 21
450.1999999999998
 31
0.0
  0
LINE
  5
4A3
330
4A1
100
AcDbEntity
  8
寸法線
  6
Continuous
 62
     0
100
AcDbLine
 10
102.3749999999999
 20
170.1999999999999
 30
0.0
 11
86.25
 21
170.1999999999999
 31
0.0
  0
LINE
  5
4A4
330
4A1
100
AcDbEntity
  8
寸法線
  6
Continuous
 62
     0
100
AcDbLine
 10
87.50000000000005
 20
447.7
 30
0.0
 11
87.5
 21
172.6999999999999
 31
0.0
  0
SOLID
  5
4A5
330
4A1
100
AcDbEntity
  8
寸法線
  6
Continuous
 62
     0
100
AcDbTrace
 10
87.08333333333341
 20
447.7
 30
0.0
 11
87.91666666666674
 21
447.7
 31
0.0
 12
87.50000000000005
 22
450.1999999999998
 32
0.0
 13
87.50000000000005
 23
450.1999999999998
 33
0.0
  0
SOLID
  5
4A6
330
4A1
100
AcDbEntity
  8
寸法線
  6
Continuous
 62
     0
100
AcDbTrace
 10
87.08333333333332
 20
172.6999999999999
 30
0.0
 11
87.91666666666669
 21
172.6999999999999
 31
0.0
 12
87.5
 22
170.1999999999999
 32
0.0
 13
87.5
 23
170.1999999999999
 33
0.0
  0
MTEXT
  5
4A7
330
4A1
100
AcDbEntity
  8
寸法線
  6
Continuous
 62
     0
100
AcDbMText
 10
85.22727272727271
 20
310.1999999999999
 30
0.0
 40
2.5
 41
0.0
 71
     5
 72
     5
  1
{\FMS UI Gothic.ttf;バケットのＡ寸法}
 11
0.0000000000000001
 21
1.0
 31
0.0
 73
     1
 44
1.0
1001
ACAD
1000
MTEXTBEGIN
1070
    73
1070
     1
1070
    44
1040
1.0
1070
    74
1070
     0
1000
MTEXTEND
  0
POINT
  5
4A8
330
4A1
100
AcDbEntity
  8
DEFPOINTS
  6
Continuous
 62
     0
100
AcDbPoint
 10
103.0
 20
450.1999999999998
 30
0.0
  0
POINT
  5
4A9
330
4A1
100
AcDbEntity
  8
DEFPOINTS
  6
Continuous
 62
     0
100
AcDbPoint
 10
103.0
 20
170.1999999999999
 30
0.0
  0
POINT
  5
4AA
330
4A1
100
AcDbEntity
  8
DEFPOINTS
  6
Continuous
 62
     0
100
AcDbPoint
 10
87.5
 20
170.1999999999999
 30
0.0
  0
ENDBLK
  5
4AC
330
4A1
100
AcDbEntity
  8
0
100
AcDbBlockEnd
  0
BLOCK
  5
4F8
330
4B0
100
AcDbEntity
  8
0
100
AcDbBlockBegin
  2
A$C318A2D0B
 70
     0
 10
0.0
 20
0.0
 30
0.0
  3
A$C318A2D0B
  1

  0
DIMENSION
  5
4B1
330
4B0
100
AcDbEntity
  8
寸法線
  6
Continuous
100
AcDbDimension
  2
*D18
 10
49.37500081711597
 20
152.200000406038
 30
0.0
 11
47.10227354438866
 21
292.2000004060381
 31
0.0
 12
-38.12499918288404
 22
-17.99999959396188
 32
0.0
  1
{\fMS UI Gothic|b0|i0|c128|p50;バケットのＡ寸法}
 71
     5
 42
-1.0
  3
ISO-25
100
AcDbAlignedDimension
 13
64.87500081711596
 23
432.2000004060381
 33
0.0
 14
64.87500081711596
 24
152.200000406038
 34
0.0
 50
90.0
100
AcDbRotatedDimension
  0
DIMENSION
  5
4B2
330
4B0
100
AcDbEntity
  8
寸法線
  6
Continuous
100
AcDbDimension
  2
*D16
 10
6.625000817115966
 20
444.7000004060381
 30
0.0
 11
4.352273544388616
 21
292.2000004060381
 31
0.0
 12
-38.12499918288404
 22
-17.99999959396188
 32
0.0
  1
{\fMS UI Gothic|b0|i0|c128|p50;バケットのＢ寸法現合約305}
 71
     5
 42
-1.0
  3
ISO-25
100
AcDbAlignedDimension
 13
11.25000081711596
 23
139.700000406038
 33
0.0
 14
11.87500081711596
 24
444.7000004060381
 34
0.0
 50
90.0
100
AcDbRotatedDimension
  0
LINE
  5
4B3
330
4B0
100
AcDbEntity
  8
隠線
100
AcDbLine
 10
78.87500081711596
 20
432.2000004060381
 30
0.0
 11
78.87500081711596
 21
152.200000406038
 31
0.0
  0
LINE
  5
4B4
330
4B0
100
AcDbEntity
  8
隠線
100
AcDbLine
 10
64.87500081711596
 20
432.2000004060381
 30
0.0
 11
64.87500081711596
 21
152.200000406038
 31
0.0
  0
LINE
  5
4B5
330
4B0
100
AcDbEntity
  8
隠線
100
AcDbLine
 10
88.77449575372763
 20
152.200000406038
 30
0.0
 11
88.77449575372763
 21
432.2000004060381
 31
0.0
  0
LINE
  5
4B6
330
4B0
100
AcDbEntity
  8
外形線
100
AcDbLine
 10
113.8750008171159
 20
144.3000004060381
 30
0.0
 11
113.8750008171159
 21
440.1000004060381
 31
0.0
  0
LINE
  5
4B7
330
4B0
100
AcDbEntity
  8
外形線
100
AcDbLine
 10
103.8750008171159
 20
440.1000004060381
 30
0.0
 11
103.8750008171159
 21
144.3000004060381
 31
0.0
  0
LINE
  5
4B8
330
4B0
100
AcDbEntity
  8
外形線
100
AcDbLine
 10
18.87500081711596
 20
142.0000004060381
 30
0.0
 11
18.87500081711596
 21
442.4000004060379
 31
0.0
  0
DIMENSION
  5
4B9
330
4B0
100
AcDbEntity
  8
寸法線
  6
Continuous
100
AcDbDimension
  2
*D15
 10
5.375000817115959
 20
139.700000406038
 30
0.0
 11
3.500000817115931
 21
133.7000004060381
 31
0.0
 12
-38.12499918288404
 22
-17.99999959396188
 32
0.0
 71
     5
 42
-1.0
  3
ISO-25
100
AcDbAlignedDimension
 13
26.37500081711596
 23
127.7000004060381
 33
0.0
 14
11.87500081711596
 24
139.700000406038
 34
0.0
 50
90.0
100
AcDbRotatedDimension
  0
LINE
  5
4BA
330
4B0
100
AcDbEntity
  8
外形細線
100
AcDbLine
 10
31.37500081711596
 20
139.700000406038
 30
0.0
 11
31.37500081711596
 21
127.7000004060381
 31
0.0
  0
LINE
  5
4BB
330
4B0
100
AcDbEntity
  8
外形細線
100
AcDbLine
 10
26.37500081711596
 20
139.700000406038
 30
0.0
 11
26.37500081711596
 21
127.7000004060381
 31
0.0
  0
LINE
  5
4BC
330
4B0
100
AcDbEntity
  8
外形線
100
AcDbLine
 10
31.87500081711596
 20
127.9886755406329
 30
0.0
 11
31.87500081711596
 21
139.700000406038
 31
0.0
  0
LINE
  5
4BD
330
4B0
100
AcDbEntity
  8
外形線
100
AcDbLine
 10
25.87500081711596
 20
139.700000406038
 30
0.0
 11
25.87500081711596
 21
127.9886755406329
 31
0.0
  0
DIMENSION
  5
4BE
330
4B0
100
AcDbEntity
  8
寸法線
  6
Continuous
100
AcDbDimension
  2
*D12
 10
78.87500081711596
 20
6.750000406038111
 30
0.0
 11
96.37500081711596
 21
8.625000406038111
 31
0.0
 12
-38.12499918288404
 22
-17.99999959396188
 32
0.0
 71
     5
 42
-1.0
  3
ISO-25
100
AcDbAlignedDimension
 13
113.8750008171159
 23
28.45000040603811
 33
0.0
 14
78.87500081711596
 24
29.70000040603811
 34
0.0
100
AcDbRotatedDimension
  0
DIMENSION
  5
4BF
330
4B0
100
AcDbEntity
  8
寸法線
  6
Continuous
100
AcDbDimension
  2
*D10
 10
113.8750008171159
 20
1.25000040603811
 30
0.0
 11
68.87500081711596
 21
1.25000040603811
 31
0.0
 12
-38.12499918288404
 22
-17.99999959396188
 32
0.0
 70
   128
 71
     5
 42
-1.0
  3
ISO-25
100
AcDbAlignedDimension
 13
18.87500081711596
 23
32.00000040603811
 33
0.0
 14
113.8750008171159
 24
29.70000040603811
 34
0.0
100
AcDbRotatedDimension
  0
DIMENSION
  5
4C0
330
4B0
100
AcDbEntity
  8
寸法線
  6
Continuous
100
AcDbDimension
  2
*D9
 10
11.87500081711596
 20
1.50000040603811
 30
0.0
 11
15.37500081711596
 21
3.375000406038111
 31
0.0
 12
-38.12499918288404
 22
-17.99999959396188
 32
0.0
 71
     5
 42
-1.0
  3
ISO-25
100
AcDbAlignedDimension
 13
18.87500081711596
 23
32.00000040603811
 33
0.0
 14
11.87500081711596
 24
32.00000040603811
 34
0.0
100
AcDbRotatedDimension
  0
DIMENSION
  5
4C1
330
4B0
100
AcDbEntity
  8
寸法線
  6
Continuous
100
AcDbDimension
  2
*D14
 10
104.3414374919692
 20
36.78356373118479
 30
0.0
 11
100.4965443692673
 21
43.28010728333619
 31
0.0
 12
-38.12499918288404
 22
-17.99999959396188
 32
0.0
 70
     1
  1
14
 71
     5
 42
-1.0
  3
ISO-25
100
AcDbAlignedDimension
 13
78.87500081711596
 23
32.00000040603811
 33
0.0
 14
89.2164374919692
 24
21.65856373118484
 34
0.0
  0
DIMENSION
  5
4C2
330
4B0
100
AcDbEntity
  8
寸法線
  6
Continuous
100
AcDbDimension
  2
*D13
 10
103.8750008171159
 20
32.00000040603811
 30
0.0
 11
98.62500081711596
 21
23.00000040603812
 31
0.0
 12
-38.12499918288404
 22
-17.99999959396188
 32
0.0
 70
   130
 71
     5
 42
-1.0
  3
ISO-25
100
AcDb2LineAngularDimension
 13
78.87500081711596
 23
32.00000040603811
 33
0.0
 14
88.77449575372763
 24
22.10050546942644
 34
0.0
 15
11.87500081711596
 25
32.00000040603811
 35
0.0
 16
99.83943011736412
 26
26.38259850525725
 36
0.0
1001
ACAD
1000
DSTYLE
1002
{
1070
   271
1070
     0
1002
}
  0
DIMENSION
  5
4C3
330
4B0
100
AcDbEntity
  8
寸法線
  6
Continuous
100
AcDbDimension
  2
*D6
 10
142.8750008171159
 20
95.75000040603812
 30
0.0
 11
80.87500081711596
 21
97.62500040603812
 31
0.0
 12
-38.12499918288404
 22
-17.99999959396188
 32
0.0
 71
     5
 42
-1.0
  3
ISO-25
100
AcDbAlignedDimension
 13
18.87500081711596
 23
82.00000040603811
 33
0.0
 14
142.8750008171159
 24
82.00000040603811
 34
0.0
100
AcDbRotatedDimension
  0
LINE
  5
4C4
330
4B0
100
AcDbEntity
  8
隠線
100
AcDbLine
 10
18.87500081711596
 20
34.30000040603811
 30
0.0
 11
103.8750008171159
 21
34.30000040603811
 31
0.0
  0
LINE
  5
4C5
330
4B0
100
AcDbEntity
  8
外形線
100
AcDbLine
 10
77.92230962365781
 20
29.70000040603811
 30
0.0
 11
87.14815015699853
 21
20.47415987269738
 31
0.0
  0
LINE
  5
4C6
330
4B0
100
AcDbEntity
  8
外形線
100
AcDbLine
 10
78.87500081711596
 20
32.00000040603811
 30
0.0
 11
88.77449575372763
 21
22.10050546942644
 31
0.0
  0
LINE
  5
4C7
330
4B0
100
AcDbEntity
  8
外形線
100
AcDbLine
 10
11.87500081711596
 20
32.00000040603811
 30
0.0
 11
103.8750008171159
 21
32.00000040603811
 31
0.0
  0
LINE
  5
4C8
330
4B0
100
AcDbEntity
  8
外形線
100
AcDbLine
 10
11.87500081711596
 20
82.00000040603811
 30
0.0
 11
142.8750008171159
 21
82.00000040603811
 31
0.0
  0
DIMENSION
  5
4C9
330
4B0
100
AcDbEntity
  8
寸法線
100
AcDbDimension
  2
*D4
 10
3.125000817115966
 20
32.00000040603812
 30
0.0
 11
3.12500081711596
 21
57.50000040603811
 31
0.0
 12
-38.12499918288404
 22
-17.99999959396188
 32
0.0
 70
   128
 71
     5
 42
-1.0
  3
ISO-25
100
AcDbAlignedDimension
 13
11.87500081711596
 23
82.00000040603811
 33
0.0
 14
11.87500081711596
 24
32.00000040603811
 34
0.0
 50
90.0
100
AcDbRotatedDimension
  0
CIRCLE
  5
4CA
330
4B0
100
AcDbEntity
  8
外形線
100
AcDbCircle
 10
28.87500081711596
 20
72.00000040603811
 30
0.0
 40
2.5
  0
CIRCLE
  5
4CB
330
4B0
100
AcDbEntity
  8
外形細線
100
AcDbCircle
 10
28.87500081711596
 20
72.00000040603811
 30
0.0
 40
3.0
  0
LINE
  5
4CC
330
4B0
100
AcDbEntity
  8
隠線
100
AcDbLine
 10
18.87500081711596
 20
82.00000040603811
 30
0.0
 11
18.87500081711596
 21
32.00000040603811
 31
0.0
  0
LINE
  5
4CD
330
4B0
100
AcDbEntity
  8
外形線
100
AcDbLine
 10
39.87500081711596
 20
82.00000040603812
 30
0.0
 11
39.87500081711596
 21
32.00000040603812
 31
0.0
  0
LINE
  5
4CE
330
4B0
100
AcDbEntity
  8
外形線
100
AcDbLine
 10
11.87500081711596
 20
32.00000040603811
 30
0.0
 11
11.87500081711596
 21
82.00000040603811
 31
0.0
  0
DIMENSION
  5
4CF
330
4B0
100
AcDbEntity
  8
寸法線
  6
Continuous
100
AcDbDimension
  2
*D8
 10
39.87500081711596
 20
10.50000040603811
 30
0.0
 11
25.87500081711596
 21
12.37500040603811
 31
0.0
 12
-38.12499918288404
 22
-17.99999959396188
 32
0.0
 71
     5
 42
-1.0
  3
ISO-25
100
AcDbAlignedDimension
 13
11.87500081711596
 23
32.00000040603811
 33
0.0
 14
39.87500081711596
 24
32.00000040603811
 34
0.0
100
AcDbRotatedDimension
  0
MTEXT
  5
4D0
330
4B0
100
AcDbEntity
  8
寸法線
  6
Continuous
100
AcDbMText
 10
23.87500081711596
 20
52.50000040603811
 30
0.0
 40
2.5
 41
16.0
 71
     1
 72
     5
  1
t2.3
 73
     1
 44
1.0
1001
ACAD
1000
MTEXTBEGIN
1070
    73
1070
     1
1070
    44
1040
1.0
1070
    74
1070
     0
1000
MTEXTEND
  0
LINE
  5
4D1
330
4B0
100
AcDbEntity
  8
外形線
100
AcDbLine
 10
64.87500081711596
 20
29.70000040603811
 30
0.0
 11
77.92230962365779
 21
29.70000040603811
 31
0.0
  0
LINE
  5
4D2
330
4B0
100
AcDbEntity
  8
外形線
100
AcDbLine
 10
64.87500081711596
 20
32.00000040603811
 30
0.0
 11
64.87500081711596
 21
29.70000040603811
 31
0.0
  0
LINE
  5
4D3
330
4B0
100
AcDbEntity
  8
外形線
100
AcDbLine
 10
78.87423494795412
 20
29.70000040603811
 30
0.0
 11
78.87500081711596
 21
29.70000040603811
 31
0.0
  0
MTEXT
  5
4D4
330
4B0
100
AcDbEntity
  8
寸法線
  6
Continuous
100
AcDbMText
 10
52.12500081711596
 20
53.00000040603811
 30
0.0
 40
2.5
 41
12.0
 71
     1
 72
     5
  1
t2.3
 73
     1
 44
1.0
1001
ACAD
1000
MTEXTBEGIN
1070
    73
1070
     1
1070
    44
1040
1.0
1070
    74
1070
     0
1000
MTEXTEND
  0
LEADER
  5
4D5
330
4B0
100
AcDbEntity
  8
寸法線
  6
Continuous
100
AcDbLeader
  3
ISO-25
 40
2.5
 41
9.166666666666666
 76
     3
 10
31.87500081711596
 20
127.9886755406329
 30
0.0
 10
41.62500081711596
 20
117.2500004060381
 30
0.0
 10
65.12500081711596
 20
117.2500004060381
 30
0.0
213
0.0
223
-1.25
233
0.0
1001
ACAD
1000
DSTYLE
1002
{
1070
     5
1000

1070
    77
1070
     0
1070
   147
1040
0.625
1002
}
1000
LEANOF
1010
0.0
1020
-1.25
1030
0.0
  0
DIMENSION
  5
4D6
330
4B0
100
AcDbEntity
  8
寸法線
  6
Continuous
100
AcDbDimension
  2
*D7
 10
28.87500081711596
 20
88.0000004060381
 30
0.0
 11
24.12500081711596
 21
88.0000004060381
 31
0.0
 12
-38.12499918288404
 22
-17.99999959396188
 32
0.0
 70
   128
 71
     5
 42
-1.0
  3
ISO-25
100
AcDbAlignedDimension
 13
18.87500081711596
 23
82.00000040603811
 33
0.0
 14
28.87500081711596
 24
82.00000040603811
 34
0.0
100
AcDbRotatedDimension
  0
DIMENSION
  5
4D7
330
4B0
100
AcDbEntity
  8
寸法線
100
AcDbDimension
  2
*D5
 10
7.125000817115973
 20
72.00000040603811
 30
0.0
 11
7.125000817115959
 21
76.75000040603811
 31
0.0
 12
-38.12499918288404
 22
-17.99999959396188
 32
0.0
 70
   128
 71
     5
 42
-1.0
  3
ISO-25
100
AcDbAlignedDimension
 13
11.87500081711596
 23
82.00000040603811
 33
0.0
 14
11.87500081711596
 24
72.00000040603811
 34
0.0
 50
90.0
100
AcDbRotatedDimension
  0
LINE
  5
4D8
330
4B0
100
AcDbEntity
  8
外形線
100
AcDbLine
 10
25.87500081711596
 20
127.9886755406329
 30
0.0
 11
31.87500081711596
 21
127.9886755406329
 31
0.0
  0
LINE
  5
4D9
330
4B0
100
AcDbEntity
  8
外形線
100
AcDbLine
 10
26.37500081711596
 20
127.7000004060381
 30
0.0
 11
31.37500081711596
 21
127.7000004060381
 31
0.0
  0
LINE
  5
4DA
330
4B0
100
AcDbEntity
  8
外形線
100
AcDbLine
 10
25.87500081711596
 20
127.9886755406329
 30
0.0
 11
26.37500081711596
 21
127.7000004060381
 31
0.0
  0
LINE
  5
4DB
330
4B0
100
AcDbEntity
  8
外形線
100
AcDbLine
 10
31.37500081711596
 20
127.7000004060381
 30
0.0
 11
31.87500081711596
 21
127.9886755406329
 31
0.0
  0
MTEXT
  5
4DC
330
4B0
100
AcDbEntity
  8
寸法線
  6
Continuous
100
AcDbMText
 10
49.87500041019688
 20
121.000000760709
 30
0.0
 40
2.5
 41
0.0
 71
     1
 72
     5
  1
2-M6
 73
     1
 44
1.0
1001
ACAD
1000
MTEXTBEGIN
1070
    73
1070
     1
1070
    44
1040
1.0
1070
    74
1070
     0
1000
MTEXTEND
  0
LINE
  5
4DD
330
4B0
100
AcDbEntity
  8
外形線
100
AcDbLine
 10
113.8750008171159
 20
29.70000040603811
 30
0.0
 11
142.8750008171159
 21
82.00000040603811
 31
0.0
  0
DIMENSION
  5
4DE
330
4B0
100
AcDbEntity
  8
寸法線
  6
Continuous
100
AcDbDimension
  2
*D11
 10
103.8750008171159
 20
11.00000040603811
 30
0.0
 11
108.8750008171159
 21
12.87500040603811
 31
0.0
 12
-38.12499918288404
 22
-17.99999959396188
 32
0.0
 71
     5
 42
-1.0
  3
ISO-25
100
AcDbAlignedDimension
 13
113.8750008171159
 23
29.07500040603811
 33
0.0
 14
103.8750008171159
 24
32.00000040603811
 34
0.0
100
AcDbRotatedDimension
  0
LINE
  5
4DF
330
4B0
100
AcDbEntity
  8
隠線
100
AcDbLine
 10
103.8750008171159
 20
34.30000040603811
 30
0.0
 11
115.0356160571417
 21
31.79310995960189
 31
0.0
  0
LINE
  5
4E0
330
4B0
100
AcDbEntity
  8
外形線
100
AcDbLine
 10
103.8750008171159
 20
32.00000040603811
 30
0.0
 11
113.8750008171159
 21
29.70000040603811
 31
0.0
  0
LINE
  5
4E1
330
4B0
100
AcDbEntity
  8
外形線
100
AcDbLine
 10
88.77449575372763
 20
22.10050546942644
 30
0.0
 11
87.14815015699853
 21
20.47415987269738
 31
0.0
  0
LINE
  5
4E2
330
4B0
100
AcDbEntity
  8
隠線
100
AcDbLine
 10
64.87500081711596
 20
152.200000406038
 30
0.0
 11
88.77449575372763
 21
152.200000406038
 31
0.0
  0
LINE
  5
4E3
330
4B0
100
AcDbEntity
  8
外形線
100
AcDbLine
 10
142.8750008171159
 20
144.3000004060381
 30
0.0
 11
22.85871767452444
 21
144.3000004060381
 31
0.0
  0
LINE
  5
4E4
330
4B0
100
AcDbEntity
  8
外形線
100
AcDbLine
 10
15.8587176745244
 20
142.0000004060381
 30
0.0
 11
142.8750008171159
 21
142.0000004060381
 31
0.0
  0
LINE
  5
4E5
330
4B0
100
AcDbEntity
  8
外形線
100
AcDbLine
 10
22.85871767452444
 20
144.3000004060381
 30
0.0
 11
18.87500081711596
 21
142.0000004060381
 31
0.0
  0
LINE
  5
4E6
330
4B0
100
AcDbEntity
  8
外形線
100
AcDbLine
 10
11.87500081711596
 20
139.700000406038
 30
0.0
 11
39.87500081711596
 21
139.700000406038
 31
0.0
  0
LINE
  5
4E7
330
4B0
100
AcDbEntity
  8
外形線
100
AcDbLine
 10
11.87500081711596
 20
139.700000406038
 30
0.0
 11
15.8587176745244
 21
142.0000004060381
 31
0.0
  0
LINE
  5
4E8
330
4B0
100
AcDbEntity
  8
外形線
100
AcDbLine
 10
39.87500081711596
 20
139.700000406038
 30
0.0
 11
39.87500081711596
 21
142.0000004060381
 31
0.0
  0
LINE
  5
4E9
330
4B0
100
AcDbEntity
  8
外形線
100
AcDbLine
 10
142.8750008171159
 20
142.0000004060381
 30
0.0
 11
142.8750008171159
 21
144.3000004060381
 31
0.0
  0
LINE
  5
4EA
330
4B0
100
AcDbEntity
  8
隠線
100
AcDbLine
 10
88.77449575372763
 20
432.2000004060381
 30
0.0
 11
64.87500081711596
 21
432.2000004060381
 31
0.0
  0
LINE
  5
4EB
330
4B0
100
AcDbEntity
  8
外形線
100
AcDbLine
 10
142.8750008171159
 20
442.4000004060379
 30
0.0
 11
39.87500081711596
 21
442.4000004060379
 31
0.0
  0
LINE
  5
4EC
330
4B0
100
AcDbEntity
  8
外形線
100
AcDbLine
 10
22.85871767452444
 20
440.1000004060379
 30
0.0
 11
142.8750008171159
 21
440.1000004060381
 31
0.0
  0
DIMENSION
  5
4ED
330
4B0
100
AcDbEntity
  8
寸法線
  6
Continuous
100
AcDbDimension
  2
*D17
 10
6.625000817115959
 20
456.7000004060381
 30
0.0
 11
4.750000817115881
 21
450.7000004060381
 31
0.0
 12
-38.12499918288404
 22
-17.99999959396188
 32
0.0
 71
     5
 42
-1.0
  3
ISO-25
100
AcDbAlignedDimension
 13
6.625000817115966
 23
444.7000004060381
 33
0.0
 14
26.37500081711596
 24
456.7000004060381
 34
0.0
 50
90.0
100
AcDbRotatedDimension
  0
LINE
  5
4EE
330
4B0
100
AcDbEntity
  8
外形線
100
AcDbLine
 10
39.87500081711596
 20
442.4000004060379
 30
0.0
 11
15.8587176745244
 21
442.4000004060379
 31
0.0
  0
LINE
  5
4EF
330
4B0
100
AcDbEntity
  8
外形線
100
AcDbLine
 10
11.87500081711596
 20
444.7000004060381
 30
0.0
 11
39.87500081711596
 21
444.7000004060381
 31
0.0
  0
LINE
  5
4F0
330
4B0
100
AcDbEntity
  8
外形線
100
AcDbLine
 10
22.85871767452444
 20
440.1000004060379
 30
0.0
 11
18.87500081711596
 21
442.4000004060379
 31
0.0
  0
LINE
  5
4F1
330
4B0
100
AcDbEntity
  8
外形線
100
AcDbLine
 10
11.87500081711596
 20
444.7000004060381
 30
0.0
 11
15.8587176745244
 21
442.4000004060379
 31
0.0
  0
LINE
  5
4F2
330
4B0
100
AcDbEntity
  8
外形細線
100
AcDbLine
 10
31.37500081711596
 20
456.7000004060381
 30
0.0
 11
31.37500081711596
 21
444.7000004060381
 31
0.0
  0
LINE
  5
4F3
330
4B0
100
AcDbEntity
  8
外形細線
100
AcDbLine
 10
26.37500081711596
 20
456.7000004060381
 30
0.0
 11
26.37500081711596
 21
444.7000004060381
 31
0.0
  0
LINE
  5
4F4
330
4B0
100
AcDbEntity
  8
外形線
100
AcDbLine
 10
31.87500081711596
 20
456.4113252714433
 30
0.0
 11
31.87500081711596
 21
444.7000004060379
 31
0.0
  0
LINE
  5
4F5
330
4B0
100
AcDbEntity
  8
外形線
100
AcDbLine
 10
25.87500081711596
 20
444.7000004060381
 30
0.0
 11
25.87500081711596
 21
456.4113252714433
 31
0.0
  0
LINE
  5
4F6
330
4B0
100
AcDbEntity
  8
外形線
100
AcDbLine
 10
39.87500081711596
 20
444.7000004060381
 30
0.0
 11
39.87500081711596
 21
442.4000004060379
 31
0.0
  0
LINE
  5
4F7
330
4B0
100
AcDbEntity
  8
外形線
100
AcDbLine
 10
142.8750008171159
 20
440.1000004060381
 30
0.0
 11
142.8750008171159
 21
442.4000004060379
 31
0.0
  0
ENDBLK
  5
4F9
330
4B0
100
AcDbEntity
  8
0
100
AcDbBlockEnd
  0
BLOCK
  5
57C
330
579
100
AcDbEntity
  8
0
100
AcDbBlockBegin
  2
TAPF08N
 70
     0
 10
0.0
 20
0.0
 30
0.0
  3
TAPF08N
  1

  0
CIRCLE
  5
57A
330
579
100
AcDbEntity
  8
0
  6
ByBlock
 62
     7
100
AcDbCircle
 10
0.0000341022967518
 20
0.0000034482758764
 30
0.0
 40
4.0
  0
CIRCLE
  5
57B
330
579
100
AcDbEntity
  8
0
  6
ByBlock
 62
     0
100
AcDbCircle
 10
0.0000341022967518
 20
0.0000034482758764
 30
0.0
 40
3.299999999999998
  0
ENDBLK
  5
57D
330
579
100
AcDbEntity
  8
0
100
AcDbBlockEnd
  0
BLOCK
  5
6E1
330
6DF
100
AcDbEntity
  8
0
100
AcDbBlockBegin
  2
A$C22A23505
 70
     0
 10
0.0
 20
0.0
 30
0.0
  3
A$C22A23505
  1

  0
INSERT
  5
6E0
330
6DF
100
AcDbEntity
  8
隠線
100
AcDbBlockReference
  2
TAPF08N
 10
3.999965326142046
 20
3.999996150397008
 30
0.0
  0
ENDBLK
  5
6E2
330
6DF
100
AcDbEntity
  8
0
100
AcDbBlockEnd
  0
BLOCK
  5
869
330
85F
100
AcDbEntity
  8
0
100
AcDbBlockBegin
  2
CRFN04
 70
     0
 10
0.0
 20
0.0
 30
0.0
  3
CRFN04
  1

  0
CIRCLE
  5
860
330
85F
100
AcDbEntity
  8
0
  6
ByBlock
 62
     0
100
AcDbCircle
 10
0.0
 20
0.0
 30
0.0
 40
4.0
  0
ARC
  5
861
330
85F
100
AcDbEntity
  8
0
  6
ByBlock
 62
     0
100
AcDbCircle
 10
2.30000000000001
 20
2.299999999999997
 30
0.0
 40
2.012499999999988
100
AcDbArc
 50
180.0
 51
270.0
  0
ARC
  5
862
330
85F
100
AcDbEntity
  8
0
  6
ByBlock
 62
     0
100
AcDbCircle
 10
-2.30000000000001
 20
2.299999999999997
 30
0.0
 40
2.012499999999988
100
AcDbArc
 50
270.0
 51
0.0
  0
ARC
  5
863
330
85F
100
AcDbEntity
  8
0
  6
ByBlock
 62
     0
100
AcDbCircle
 10
-2.30000000000001
 20
-2.299999999999997
 30
0.0
 40
2.012499999999988
100
AcDbArc
 50
0.0
 51
90.0
  0
LINE
  5
864
330
85F
100
AcDbEntity
  8
0
  6
ByBlock
 62
     0
100
AcDbLine
 10
-0.2874999999999943
 20
-2.299999999999997
 30
0.0
 11
0.2875000000000227
 21
-2.299999999999997
 31
0.0
  0
LINE
  5
865
330
85F
100
AcDbEntity
  8
0
  6
ByBlock
 62
     0
100
AcDbLine
 10
-2.30000000000001
 20
-0.2875000000000085
 30
0.0
 11
-2.30000000000001
 21
0.2875000000000085
 31
0.0
  0
ARC
  5
866
330
85F
100
AcDbEntity
  8
0
  6
ByBlock
 62
     0
100
AcDbCircle
 10
2.30000000000001
 20
-2.299999999999997
 30
0.0
 40
2.012499999999988
100
AcDbArc
 50
90.0
 51
180.0
  0
LINE
  5
867
330
85F
100
AcDbEntity
  8
0
  6
ByBlock
 62
     0
100
AcDbLine
 10
2.30000000000001
 20
0.2875000000000085
 30
0.0
 11
2.30000000000001
 21
-0.2875000000000085
 31
0.0
  0
LINE
  5
868
330
85F
100
AcDbEntity
  8
0
  6
ByBlock
 62
     0
100
AcDbLine
 10
-0.2874999999999943
 20
2.299999999999997
 30
0.0
 11
0.2875000000000227
 21
2.299999999999997
 31
0.0
  0
ENDBLK
  5
86A
330
85F
100
AcDbEntity
  8
0
100
AcDbBlockEnd
  0
BLOCK
  5
873
330
86B
100
AcDbEntity
  8
0
100
AcDbBlockBegin
  2
HB08H
 70
     0
 10
0.0
 20
0.0
 30
0.0
  3
HB08H
  1

  0
LINE
  5
86C
330
86B
100
AcDbEntity
  8
0
  6
ByBlock
 62
     0
100
AcDbLine
 10
7.505568787581308
 20
0.0000034482758622
 30
0.0
 11
3.75279378758131
 21
6.500000417650098
 31
0.0
  0
LINE
  5
86D
330
86B
100
AcDbEntity
  8
0
  6
ByBlock
 62
     0
100
AcDbLine
 10
-3.752756212418692
 20
6.500000417650098
 30
0.0
 11
-7.505531212418691
 21
0.0000034482758622
 31
0.0
  0
CIRCLE
  5
86E
330
86B
100
AcDbEntity
  8
0
  6
ByBlock
 62
     0
100
AcDbCircle
 10
0.0000187875813111
 20
0.0000034482758622
 30
0.0
 40
6.299999999999998
  0
LINE
  5
86F
330
86B
100
AcDbEntity
  8
0
  6
ByBlock
 62
     0
100
AcDbLine
 10
-3.752756212418708
 20
-6.49999352109843
 30
0.0
 11
3.752793787581288
 21
-6.499993521098472
 31
0.0
  0
LINE
  5
870
330
86B
100
AcDbEntity
  8
0
  6
ByBlock
 62
     0
100
AcDbLine
 10
-7.505531212418691
 20
0.0000034482758622
 30
0.0
 11
-3.752756212418708
 21
-6.49999352109843
 31
0.0
  0
LINE
  5
871
330
86B
100
AcDbEntity
  8
0
  6
ByBlock
 62
     0
100
AcDbLine
 10
3.752793787581288
 20
-6.499993521098472
 30
0.0
 11
7.505568787581308
 21
0.0000034482758622
 31
0.0
  0
LINE
  5
872
330
86B
100
AcDbEntity
  8
0
  6
ByBlock
 62
     0
100
AcDbLine
 10
3.75279378758131
 20
6.500000417650098
 30
0.0
 11
-3.752756212418692
 21
6.500000417650098
 31
0.0
  0
ENDBLK
  5
874
330
86B
100
AcDbEntity
  8
0
100
AcDbBlockEnd
  0
BLOCK
  5
87F
330
875
100
AcDbEntity
  8
0
100
AcDbBlockBegin
  2
N12S08
 70
     0
 10
0.0
 20
0.0
 30
0.0
  3
N12S08
  1

  0
ARC
  5
876
330
875
100
AcDbEntity
  8
0
  6
ByBlock
 62
     0
100
AcDbCircle
 10
3.03159145222358
 20
3.250003448275804
 30
0.0
 40
9.387235164642332
100
AcDbArc
 50
159.7444458007811
 51
200.2555541992186
  0
LINE
  5
877
330
875
100
AcDbEntity
  8
0
  6
ByBlock
 62
     0
100
AcDbLine
 10
-6.499981212418674
 20
6.250003448275804
 30
0.0
 11
-6.499981212418674
 21
-6.249996551724137
 31
0.0
  0
LINE
  5
878
330
875
100
AcDbEntity
  8
0
  6
ByBlock
 62
     0
100
AcDbLine
 10
0.0000187875813253
 20
6.500003448275804
 30
0.0
 11
0.0000187875813253
 21
-6.499996551724137
 31
0.0
  0
LINE
  5
879
330
875
100
AcDbEntity
  8
0
  6
ByBlock
 62
     0
100
AcDbLine
 10
0.0000187875813253
 20
0.0000034482758622
 30
0.0
 11
-5.775089419918685
 21
0.0000034482758622
 31
0.0
  0
LINE
  5
87A
330
875
100
AcDbEntity
  8
0
  6
ByBlock
 62
     0
100
AcDbLine
 10
0.0000187875813253
 20
-6.499996551724137
 30
0.0
 11
-6.355643712418668
 21
-6.499996551724137
 31
0.0
  0
ARC
  5
87B
330
875
100
AcDbEntity
  8
0
  6
ByBlock
 62
     0
100
AcDbCircle
 10
3.03159145222358
 20
-3.249996551724136
 30
0.0
 40
9.387235164642332
100
AcDbArc
 50
159.7444458007811
 51
200.2555541992186
  0
LINE
  5
87C
330
875
100
AcDbEntity
  8
0
  6
ByBlock
 62
     0
100
AcDbLine
 10
-6.355643712418668
 20
-6.499996551724137
 30
0.0
 11
-6.499981212418674
 21
-6.249996551724137
 31
0.0
  0
LINE
  5
87D
330
875
100
AcDbEntity
  8
0
  6
ByBlock
 62
     0
100
AcDbLine
 10
0.0000187875813253
 20
6.500003448275804
 30
0.0
 11
-6.355643712418668
 21
6.500003448275804
 31
0.0
  0
LINE
  5
87E
330
875
100
AcDbEntity
  8
0
  6
ByBlock
 62
     0
100
AcDbLine
 10
-6.355643712418668
 20
6.500003448275804
 30
0.0
 11
-6.499981212418674
 21
6.250003448275804
 31
0.0
  0
ENDBLK
  5
880
330
875
100
AcDbEntity
  8
0
100
AcDbBlockEnd
  0
BLOCK
  5
B90
330
B8D
100
AcDbEntity
  8
0
100
AcDbBlockBegin
  2
CRSM0400
 70
     0
 10
0.0
 20
0.0
 30
0.0
  3
CRSM0400
  1

  0
ARC
  5
B8E
330
B8D
100
AcDbEntity
  8
0
  6
ByBlock
 62
     0
100
AcDbCircle
 10
8.5
 20
0.0
 30
0.0
 40
9.5
100
AcDbArc
 50
153.7617174556801
 51
206.2382825443198
  0
LINE
  5
B8F
330
B8D
100
AcDbEntity
  8
0
  6
ByBlock
 62
     0
100
AcDbLine
 10
0.0
 20
-4.199999999999987
 30
0.0
 11
0.0
 21
4.200000000000017
 31
0.0
  0
ENDBLK
  5
B91
330
B8D
100
AcDbEntity
  8
0
100
AcDbBlockEnd
  0
BLOCK
  5
C1E
330
C13
100
AcDbEntity
  8
0
100
AcDbBlockBegin
  2
*D26
 70
     1
 10
0.0
 20
0.0
 30
0.0
  3
*D26
  1

  0
LINE
  5
DCC
330
C13
100
AcDbEntity
  8
寸法線
 62
     0
370
    -2
100
AcDbLine
 10
144.0151190237823
 20
214.25000000012
 30
0.0
 11
54.74937117473296
 21
162.7123964500582
 31
0.0
  0
LINE
  5
DCD
330
C13
100
AcDbEntity
  8
寸法線
 62
     0
370
    -2
100
AcDbLine
 10
344.5000001308515
 20
98.50000000012
 30
0.0
 11
344.5000091308068
 21
-4.575195505466524
 31
0.0
  0
ARC
  5
DCE
330
C13
100
AcDbEntity
  8
寸法線
 62
     0
370
    -2
100
AcDbCircle
 10
344.4999799175544
 20
329.9999884055841
 30
0.0
 40
330.8251839110518
100
AcDbArc
 50
211.298956579228
 51
268.7010484235222
  0
SOLID
  5
DCF
330
C13
100
AcDbEntity
  8
寸法線
 62
     0
100
AcDbTrace
 10
60.74497274616875
 20
157.4978998998548
 30
0.0
 11
62.89572804314045
 21
158.7723612184315
 31
0.0
 12
57.99696643892459
 22
164.5873964500583
 32
0.0
 13
57.99696643892459
 23
164.5873964500583
 33
0.0
  0
SOLID
  5
DD0
330
C13
100
AcDbEntity
  8
寸法線
 62
     0
100
AcDbTrace
 10
337.0146596502202
 20
0.5097382214756295
 30
0.0
 11
336.9863216389501
 21
-1.990101164788455
 31
0.0
 12
344.5000088033775
 22
-0.8251955054664961
 32
0.0
 13
344.5000088033775
 23
-0.8251955054664961
 33
0.0
  0
MTEXT
  5
DD1
330
C13
100
AcDbEntity
  8
寸法線
 62
     0
100
AcDbMText
 10
181.8999002572855
 20
48.36836072457216
 30
0.0
 40
7.5
 41
0.0
 71
     5
 72
     1
  1
60\U+00B0
 11
0.8660254256130535
 21
-0.4999999621917281
 31
0.0
 73
     1
 44
1.0
1001
ACAD
1000
MTEXTBEGIN
1070
    73
1070
     1
1070
    44
1040
1.0
1070
    74
1070
     0
1000
MTEXTEND
  0
POINT
  5
DD2
330
C13
100
AcDbEntity
  8
DEFPOINTS
 62
     0
100
AcDbPoint
 10
344.4999799175544
 20
329.9999884055841
 30
0.0
  0
POINT
  5
DD3
330
C13
100
AcDbEntity
  8
DEFPOINTS
 62
     0
100
AcDbPoint
 10
145.314157129459
 20
215.0000000001201
 30
0.0
  0
POINT
  5
DD4
330
C13
100
AcDbEntity
  8
DEFPOINTS
 62
     0
100
AcDbPoint
 10
344.4999999998799
 20
100.00000000012
 30
0.0
  0
POINT
  5
DD5
330
C13
100
AcDbEntity
  8
DEFPOINTS
 62
     0
100
AcDbPoint
 10
131.8496581032012
 20
76.5731884375593
 30
0.0
  0
ENDBLK
  5
C1F
330
C13
100
AcDbEntity
  8
0
100
AcDbBlockEnd
  0
BLOCK
  5
C2C
330
C21
100
AcDbEntity
  8
0
100
AcDbBlockBegin
  2
*D27
 70
     1
 10
0.0
 20
0.0
 30
0.0
  3
*D27
  1

  0
LINE
  5
DD6
330
C21
100
AcDbEntity
  8
寸法線
 62
     0
370
    -2
100
AcDbLine
 10
158.2209337117321
 20
143.7209422305764
 30
0.0
 11
133.074399070733
 21
118.574408320145
 31
0.0
  0
LINE
  5
DD7
330
C21
100
AcDbEntity
  8
寸法線
 62
     0
370
    -2
100
AcDbLine
 10
530.7790662880278
 20
143.7209422305763
 30
0.0
 11
555.9256009290268
 21
118.5744083201451
 31
0.0
  0
ARC
  5
DD8
330
C21
100
AcDbEntity
  8
寸法線
 62
     0
370
    -2
100
AcDbCircle
 10
344.4999999998799
 20
330.0000031068666
 30
0.0
 40
295.2509479235306
100
AcDbArc
 50
226.4554725664668
 51
313.5445274335332
  0
SOLID
  5
DD9
330
C21
100
AcDbEntity
  8
寸法線
 62
     0
100
AcDbTrace
 10
140.2236941536531
 20
115.0955046645326
 30
0.0
 11
141.9688660273996
 21
116.8855815151411
 31
0.0
 12
135.7260495387009
 22
121.2260587110761
 32
0.0
 13
135.7260495387009
 23
121.2260587110761
 33
0.0
  0
SOLID
  5
DDA
330
C21
100
AcDbEntity
  8
寸法線
 62
     0
100
AcDbTrace
 10
547.0311339723601
 20
116.8855815151411
 30
0.0
 11
548.7763058461066
 21
115.0955046645326
 31
0.0
 12
553.2739504610588
 22
121.2260587110762
 32
0.0
 13
553.2739504610588
 23
121.2260587110762
 33
0.0
  0
MTEXT
  5
DDB
330
C21
100
AcDbEntity
  8
寸法線
 62
     0
100
AcDbMText
 10
344.4999999998798
 20
40.37405518333599
 30
0.0
 40
7.5
 41
0.0
 71
     5
 72
     1
  1
90\U+00B0
 73
     1
 44
1.0
1001
ACAD
1000
MTEXTBEGIN
1070
    73
1070
     1
1070
    44
1040
1.0
1070
    74
1070
     0
1000
MTEXTEND
  0
POINT
  5
DDC
330
C21
100
AcDbEntity
  8
DEFPOINTS
 62
     0
100
AcDbPoint
 10
344.4999999998799
 20
330.0000031068666
 30
0.0
  0
POINT
  5
DDD
330
C21
100
AcDbEntity
  8
DEFPOINTS
 62
     0
100
AcDbPoint
 10
159.2815938989193
 20
144.7816023869489
 30
0.0
  0
POINT
  5
DDE
330
C21
100
AcDbEntity
  8
DEFPOINTS
 62
     0
100
AcDbPoint
 10
529.7184061008406
 20
144.7816023869488
 30
0.0
  0
POINT
  5
DDF
330
C21
100
AcDbEntity
  8
DEFPOINTS
 62
     0
100
AcDbPoint
 10
268.0834302117852
 20
44.80948764121399
 30
0.0
  0
ENDBLK
  5
C2D
330
C21
100
AcDbEntity
  8
0
100
AcDbBlockEnd
  0
BLOCK
  5
C39
330
C2F
100
AcDbEntity
  8
0
100
AcDbBlockBegin
  2
*D28
 70
     1
 10
0.0
 20
0.0
 30
0.0
  3
*D28
  1

  0
LINE
  5
C3B
330
C2F
100
AcDbEntity
  8
寸法線
 62
     0
100
AcDbLine
 10
342.9999999998799
 20
180.00000000012
 30
0.0
 11
42.15205469250842
 21
180.0000000001201
 31
0.0
  0
LINE
  5
C3C
330
C2F
100
AcDbEntity
  8
寸法線
 62
     0
100
AcDbLine
 10
342.9999999998799
 20
480.0000000001198
 30
0.0
 11
42.15205469250849
 21
480.0000000001199
 31
0.0
  0
LINE
  5
C3D
330
C2F
100
AcDbEntity
  8
寸法線
 62
     0
100
AcDbLine
 10
45.90205469250845
 20
187.50000000012
 30
0.0
 11
45.9020546925085
 21
472.50000000012
 31
0.0
  0
SOLID
  5
C3E
330
C2F
100
AcDbEntity
  8
寸法線
 62
     0
100
AcDbTrace
 10
44.65205469250845
 20
187.50000000012
 30
0.0
 11
47.15205469250845
 21
187.50000000012
 31
0.0
 12
45.90205469250845
 22
180.0000000001201
 32
0.0
 13
45.90205469250845
 23
180.0000000001201
 33
0.0
  0
SOLID
  5
C3F
330
C2F
100
AcDbEntity
  8
寸法線
 62
     0
100
AcDbTrace
 10
44.6520546925085
 20
472.50000000012
 30
0.0
 11
47.1520546925085
 21
472.50000000012
 31
0.0
 12
45.9020546925085
 22
480.0000000001199
 32
0.0
 13
45.9020546925085
 23
480.0000000001199
 33
0.0
  0
MTEXT
  5
C40
330
C2F
100
AcDbEntity
  8
寸法線
 62
     0
100
AcDbMText
 10
40.22489695631118
 20
330.0000000001201
 30
0.0
 40
7.5
 41
0.0
 71
     5
 72
     5
  1
PCD300
 11
0.0000000000000001
 21
1.0
 31
0.0
 73
     1
 44
1.0
1001
ACAD
1000
MTEXTBEGIN
1070
    73
1070
     1
1070
    44
1040
1.0
1070
    74
1070
     0
1000
MTEXTEND
  0
POINT
  5
C41
330
C2F
100
AcDbEntity
  8
DEFPOINTS
 62
     0
100
AcDbPoint
 10
344.4999999998799
 20
180.00000000012
 30
0.0
  0
POINT
  5
C42
330
C2F
100
AcDbEntity
  8
DEFPOINTS
 62
     0
100
AcDbPoint
 10
344.4999999998799
 20
480.0000000001198
 30
0.0
  0
POINT
  5
C43
330
C2F
100
AcDbEntity
  8
DEFPOINTS
 62
     0
100
AcDbPoint
 10
45.9020546925085
 20
480.0000000001199
 30
0.0
  0
ENDBLK
  5
C3A
330
C2F
100
AcDbEntity
  8
0
100
AcDbBlockEnd
  0
BLOCK
  5
C4F
330
C45
100
AcDbEntity
  8
0
100
AcDbBlockBegin
  2
*D29
 70
     1
 10
0.0
 20
0.0
 30
0.0
  3
*D29
  1

  0
LINE
  5
C46
330
C45
100
AcDbEntity
  8
寸法線
 62
     0
100
AcDbLine
 10
415.5999999998798
 20
1070.0
 30
0.0
 11
687.4600576296998
 21
1069.999999999999
 31
0.0
  0
LINE
  5
C47
330
C45
100
AcDbEntity
  8
寸法線
 62
     0
100
AcDbLine
 10
345.9999999998798
 20
635.7999999999998
 30
0.0
 11
687.4600576296996
 21
635.7999999999998
 31
0.0
  0
LINE
  5
C48
330
C45
100
AcDbEntity
  8
寸法線
 62
     0
100
AcDbLine
 10
683.7100576296998
 20
1062.499999999999
 30
0.0
 11
683.7100576296998
 21
643.2999999999998
 31
0.0
  0
SOLID
  5
C49
330
C45
100
AcDbEntity
  8
寸法線
 62
     0
100
AcDbTrace
 10
682.4600576296997
 20
1062.499999999999
 30
0.0
 11
684.9600576296998
 21
1062.499999999999
 31
0.0
 12
683.7100576296998
 22
1069.999999999999
 32
0.0
 13
683.7100576296998
 23
1069.999999999999
 33
0.0
  0
SOLID
  5
C4A
330
C45
100
AcDbEntity
  8
寸法線
 62
     0
100
AcDbTrace
 10
682.4600576296997
 20
643.2999999999998
 30
0.0
 11
684.9600576296998
 21
643.2999999999998
 31
0.0
 12
683.7100576296998
 22
635.7999999999998
 32
0.0
 13
683.7100576296998
 23
635.7999999999998
 33
0.0
  0
MTEXT
  5
C4B
330
C45
100
AcDbEntity
  8
寸法線
 62
     0
100
AcDbMText
 10
678.0843194407232
 20
852.9000000000001
 30
0.0
 40
7.5
 41
0.0
 71
     5
 72
     5
  1
434.2
 11
0.0000000000000001
 21
1.0
 31
0.0
 73
     1
 44
1.0
1001
ACAD
1000
MTEXTBEGIN
1070
    73
1070
     1
1070
    44
1040
1.0
1070
    74
1070
     0
1000
MTEXTEND
  0
POINT
  5
C4C
330
C45
100
AcDbEntity
  8
DEFPOINTS
 62
     0
100
AcDbPoint
 10
414.09999999988
 20
1070.0
 30
0.0
  0
POINT
  5
C4D
330
C45
100
AcDbEntity
  8
DEFPOINTS
 62
     0
100
AcDbPoint
 10
344.4999999998799
 20
635.7999999999998
 30
0.0
  0
POINT
  5
C4E
330
C45
100
AcDbEntity
  8
DEFPOINTS
 62
     0
100
AcDbPoint
 10
683.7100576296998
 20
635.7999999999998
 30
0.0
  0
ENDBLK
  5
C50
330
C45
100
AcDbEntity
  8
0
100
AcDbBlockEnd
  0
BLOCK
  5
C5C
330
C52
100
AcDbEntity
  8
0
100
AcDbBlockBegin
  2
*D30
 70
     1
 10
0.0
 20
0.0
 30
0.0
  3
*D30
  1

  0
LINE
  5
C53
330
C52
100
AcDbEntity
  8
寸法線
 62
     0
100
AcDbLine
 10
143.496189432214
 20
690.0
 30
0.0
 11
73.25651277566976
 21
690.0
 31
0.0
  0
LINE
  5
C54
330
C52
100
AcDbEntity
  8
寸法線
 62
     0
100
AcDbLine
 10
117.49999999988
 20
750.0
 30
0.0
 11
73.25651277566976
 21
750.0
 31
0.0
  0
LINE
  5
C55
330
C52
100
AcDbEntity
  8
寸法線
 62
     0
100
AcDbLine
 10
77.00651277566976
 20
697.5
 30
0.0
 11
77.00651277566976
 21
742.4999999999998
 31
0.0
  0
SOLID
  5
C56
330
C52
100
AcDbEntity
  8
寸法線
 62
     0
100
AcDbTrace
 10
75.75651277566976
 20
697.5
 30
0.0
 11
78.25651277566976
 21
697.5
 31
0.0
 12
77.00651277566976
 22
690.0
 32
0.0
 13
77.00651277566976
 23
690.0
 33
0.0
  0
SOLID
  5
C57
330
C52
100
AcDbEntity
  8
寸法線
 62
     0
100
AcDbTrace
 10
75.75651277566976
 20
742.4999999999998
 30
0.0
 11
78.25651277566976
 21
742.4999999999998
 31
0.0
 12
77.00651277566976
 22
750.0
 32
0.0
 13
77.00651277566976
 23
750.0
 33
0.0
  0
MTEXT
  5
C58
330
C52
100
AcDbEntity
  8
寸法線
 62
     0
100
AcDbMText
 10
71.38151277566966
 20
720.0
 30
0.0
 40
7.5
 41
0.0
 71
     5
 72
     5
  1
60
 11
0.0000000000000001
 21
1.0
 31
0.0
 73
     1
 44
1.0
1001
ACAD
1000
MTEXTBEGIN
1070
    73
1070
     1
1070
    44
1040
1.0
1070
    74
1070
     0
1000
MTEXTEND
  0
POINT
  5
C59
330
C52
100
AcDbEntity
  8
DEFPOINTS
 62
     0
100
AcDbPoint
 10
144.9961894322139
 20
690.0
 30
0.0
  0
POINT
  5
C5A
330
C52
100
AcDbEntity
  8
DEFPOINTS
 62
     0
100
AcDbPoint
 10
118.99999999988
 20
750.0
 30
0.0
  0
POINT
  5
C5B
330
C52
100
AcDbEntity
  8
DEFPOINTS
 62
     0
100
AcDbPoint
 10
77.00651277566976
 20
750.0
 30
0.0
  0
ENDBLK
  5
C5D
330
C52
100
AcDbEntity
  8
0
100
AcDbBlockEnd
  0
BLOCK
  5
C69
330
C5F
100
AcDbEntity
  8
0
100
AcDbBlockBegin
  2
*D31
 70
     1
 10
0.0
 20
0.0
 30
0.0
  3
*D31
  1

  0
LINE
  5
DBF
330
C5F
100
AcDbEntity
  8
寸法線
 62
     0
100
AcDbLine
 10
117.49999999988
 20
750.0
 30
0.0
 11
73.25651277566976
 21
750.0
 31
0.0
  0
LINE
  5
DC0
330
C5F
100
AcDbEntity
  8
寸法線
 62
     0
100
AcDbLine
 10
273.3999999998799
 20
1070.0
 30
0.0
 11
73.25651277566983
 21
1070.0
 31
0.0
  0
LINE
  5
DC1
330
C5F
100
AcDbEntity
  8
寸法線
 62
     0
100
AcDbLine
 10
77.00651277566976
 20
757.5
 30
0.0
 11
77.00651277566985
 21
1062.5
 31
0.0
  0
SOLID
  5
DC2
330
C5F
100
AcDbEntity
  8
寸法線
 62
     0
100
AcDbTrace
 10
75.75651277566976
 20
757.5
 30
0.0
 11
78.25651277566976
 21
757.5
 31
0.0
 12
77.00651277566976
 22
750.0
 32
0.0
 13
77.00651277566976
 23
750.0
 33
0.0
  0
SOLID
  5
DC3
330
C5F
100
AcDbEntity
  8
寸法線
 62
     0
100
AcDbTrace
 10
75.75651277566985
 20
1062.5
 30
0.0
 11
78.25651277566985
 21
1062.5
 31
0.0
 12
77.00651277566985
 22
1070.0
 32
0.0
 13
77.00651277566985
 23
1070.0
 33
0.0
  0
MTEXT
  5
DC4
330
C5F
100
AcDbEntity
  8
寸法線
 62
     0
100
AcDbMText
 10
71.38077458669329
 20
910.0
 30
0.0
 40
7.5
 41
0.0
 71
     5
 72
     5
  1
320
 11
0.0000000000000001
 21
1.0
 31
0.0
 73
     1
 44
1.0
1001
ACAD
1000
MTEXTBEGIN
1070
    73
1070
     1
1070
    44
1040
1.0
1070
    74
1070
     0
1000
MTEXTEND
  0
POINT
  5
DC5
330
C5F
100
AcDbEntity
  8
DEFPOINTS
 62
     0
100
AcDbPoint
 10
118.99999999988
 20
750.0
 30
0.0
  0
POINT
  5
DC6
330
C5F
100
AcDbEntity
  8
DEFPOINTS
 62
     0
100
AcDbPoint
 10
274.8999999998799
 20
1070.0
 30
0.0
  0
POINT
  5
DC7
330
C5F
100
AcDbEntity
  8
DEFPOINTS
 62
     0
100
AcDbPoint
 10
77.00651277566985
 20
1070.0
 30
0.0
  0
ENDBLK
  5
C6A
330
C5F
100
AcDbEntity
  8
0
100
AcDbBlockEnd
  0
BLOCK
  5
C83
330
C79
100
AcDbEntity
  8
0
100
AcDbBlockBegin
  2
*D32
 70
     1
 10
0.0
 20
0.0
 30
0.0
  3
*D32
  1

  0
LINE
  5
C7A
330
C79
100
AcDbEntity
  8
寸法線
 62
     0
100
AcDbLine
 10
114.49999999988
 20
791.5
 30
0.0
 11
114.49999999988
 21
827.7119283875702
 31
0.0
  0
LINE
  5
C7B
330
C79
100
AcDbEntity
  8
寸法線
 62
     0
100
AcDbLine
 10
574.4999999998798
 20
791.5
 30
0.0
 11
574.4999999998798
 21
827.7119283875702
 31
0.0
  0
LINE
  5
C7C
330
C79
100
AcDbEntity
  8
寸法線
 62
     0
100
AcDbLine
 10
121.99999999988
 20
823.9619283875702
 30
0.0
 11
566.9999999998798
 21
823.9619283875702
 31
0.0
  0
SOLID
  5
C7D
330
C79
100
AcDbEntity
  8
寸法線
 62
     0
100
AcDbTrace
 10
121.99999999988
 20
825.2119283875702
 30
0.0
 11
121.99999999988
 21
822.7119283875705
 31
0.0
 12
114.49999999988
 22
823.9619283875702
 32
0.0
 13
114.49999999988
 23
823.9619283875702
 33
0.0
  0
SOLID
  5
C7E
330
C79
100
AcDbEntity
  8
寸法線
 62
     0
100
AcDbTrace
 10
566.9999999998798
 20
825.2119283875702
 30
0.0
 11
566.9999999998798
 21
822.7119283875705
 31
0.0
 12
574.4999999998798
 22
823.9619283875702
 32
0.0
 13
574.4999999998798
 23
823.9619283875702
 33
0.0
  0
MTEXT
  5
C7F
330
C79
100
AcDbEntity
  8
寸法線
 62
     0
100
AcDbMText
 10
344.4999999998799
 20
829.5869283875703
 30
0.0
 40
7.5
 41
0.0
 71
     5
 72
     5
  1
460
 73
     1
 44
1.0
1001
ACAD
1000
MTEXTBEGIN
1070
    73
1070
     1
1070
    44
1040
1.0
1070
    74
1070
     0
1000
MTEXTEND
  0
POINT
  5
C80
330
C79
100
AcDbEntity
  8
DEFPOINTS
 62
     0
100
AcDbPoint
 10
114.49999999988
 20
790.0
 30
0.0
  0
POINT
  5
C81
330
C79
100
AcDbEntity
  8
DEFPOINTS
 62
     0
100
AcDbPoint
 10
574.4999999998798
 20
790.0
 30
0.0
  0
POINT
  5
C82
330
C79
100
AcDbEntity
  8
DEFPOINTS
 62
     0
100
AcDbPoint
 10
574.4999999998798
 20
823.9619283875702
 30
0.0
  0
ENDBLK
  5
C84
330
C79
100
AcDbEntity
  8
0
100
AcDbBlockEnd
  0
BLOCK
  5
C90
330
C86
100
AcDbEntity
  8
0
100
AcDbBlockBegin
  2
*D33
 70
     1
 10
0.0
 20
0.0
 30
0.0
  3
*D33
  1

  0
LINE
  5
C87
330
C86
100
AcDbEntity
  8
寸法線
 62
     0
100
AcDbLine
 10
574.4999999998798
 20
793.0
 30
0.0
 11
574.4999999998798
 21
827.7119283875702
 31
0.0
  0
LINE
  5
C88
330
C86
100
AcDbEntity
  8
寸法線
 62
     0
100
AcDbLine
 10
626.8416144040879
 20
817.5
 30
0.0
 11
626.8416144040879
 21
827.7119283875702
 31
0.0
  0
LINE
  5
C89
330
C86
100
AcDbEntity
  8
寸法線
 62
     0
100
AcDbLine
 10
581.9999999998798
 20
823.9619283875702
 30
0.0
 11
619.3416144040881
 21
823.9619283875702
 31
0.0
  0
SOLID
  5
C8A
330
C86
100
AcDbEntity
  8
寸法線
 62
     0
100
AcDbTrace
 10
581.9999999998798
 20
825.2119283875702
 30
0.0
 11
581.9999999998798
 21
822.7119283875705
 31
0.0
 12
574.4999999998798
 22
823.9619283875702
 32
0.0
 13
574.4999999998798
 23
823.9619283875702
 33
0.0
  0
SOLID
  5
C8B
330
C86
100
AcDbEntity
  8
寸法線
 62
     0
100
AcDbTrace
 10
619.3416144040881
 20
825.2119283875702
 30
0.0
 11
619.3416144040881
 21
822.7119283875705
 31
0.0
 12
626.8416144040879
 22
823.9619283875702
 32
0.0
 13
626.8416144040879
 23
823.9619283875702
 33
0.0
  0
MTEXT
  5
C8C
330
C86
100
AcDbEntity
  8
寸法線
 62
     0
100
AcDbMText
 10
600.6708072019838
 20
829.5876665765467
 30
0.0
 40
7.5
 41
0.0
 71
     5
 72
     5
  1
52.3
 73
     1
 44
1.0
1001
ACAD
1000
MTEXTBEGIN
1070
    73
1070
     1
1070
    44
1040
1.0
1070
    74
1070
     0
1000
MTEXTEND
  0
POINT
  5
C8D
330
C86
100
AcDbEntity
  8
DEFPOINTS
 62
     0
100
AcDbPoint
 10
574.4999999998798
 20
791.5
 30
0.0
  0
POINT
  5
C8E
330
C86
100
AcDbEntity
  8
DEFPOINTS
 62
     0
100
AcDbPoint
 10
626.8416144040879
 20
816.0
 30
0.0
  0
POINT
  5
C8F
330
C86
100
AcDbEntity
  8
DEFPOINTS
 62
     0
100
AcDbPoint
 10
626.8416144040879
 20
823.9619283875702
 30
0.0
  0
ENDBLK
  5
C91
330
C86
100
AcDbEntity
  8
0
100
AcDbBlockEnd
  0
BLOCK
  5
C9D
330
C93
100
AcDbEntity
  8
0
100
AcDbBlockBegin
  2
*D34
 70
     1
 10
0.0
 20
0.0
 30
0.0
  3
*D34
  1

  0
LINE
  5
C94
330
C93
100
AcDbEntity
  8
寸法線
 62
     0
100
AcDbLine
 10
628.3416144040881
 20
816.0
 30
0.0
 11
647.6505307400131
 21
816.0
 31
0.0
  0
LINE
  5
C95
330
C93
100
AcDbEntity
  8
寸法線
 62
     0
100
AcDbLine
 10
628.3416144040881
 20
726.0
 30
0.0
 11
647.6505307400128
 21
726.0
 31
0.0
  0
LINE
  5
C96
330
C93
100
AcDbEntity
  8
寸法線
 62
     0
100
AcDbLine
 10
643.900530740013
 20
808.5
 30
0.0
 11
643.900530740013
 21
733.4999999999999
 31
0.0
  0
SOLID
  5
C97
330
C93
100
AcDbEntity
  8
寸法線
 62
     0
100
AcDbTrace
 10
642.6505307400129
 20
808.5
 30
0.0
 11
645.1505307400131
 21
808.5
 31
0.0
 12
643.900530740013
 22
816.0
 32
0.0
 13
643.900530740013
 23
816.0
 33
0.0
  0
SOLID
  5
C98
330
C93
100
AcDbEntity
  8
寸法線
 62
     0
100
AcDbTrace
 10
642.6505307400129
 20
733.4999999999999
 30
0.0
 11
645.150530740013
 21
733.4999999999999
 31
0.0
 12
643.900530740013
 22
726.0
 32
0.0
 13
643.900530740013
 23
726.0
 33
0.0
  0
MTEXT
  5
C99
330
C93
100
AcDbEntity
  8
寸法線
 62
     0
100
AcDbMText
 10
638.2755307400127
 20
771.0000000000001
 30
0.0
 40
7.5
 41
0.0
 71
     5
 72
     5
  1
90
 11
0.0000000000000001
 21
1.0
 31
0.0
 73
     1
 44
1.0
1001
ACAD
1000
MTEXTBEGIN
1070
    73
1070
     1
1070
    44
1040
1.0
1070
    74
1070
     0
1000
MTEXTEND
  0
POINT
  5
C9A
330
C93
100
AcDbEntity
  8
DEFPOINTS
 62
     0
100
AcDbPoint
 10
626.8416144040879
 20
816.0
 30
0.0
  0
POINT
  5
C9B
330
C93
100
AcDbEntity
  8
DEFPOINTS
 62
     0
100
AcDbPoint
 10
626.8416144040879
 20
726.0
 30
0.0
  0
POINT
  5
C9C
330
C93
100
AcDbEntity
  8
DEFPOINTS
 62
     0
100
AcDbPoint
 10
643.900530740013
 20
726.0
 30
0.0
  0
ENDBLK
  5
C9E
330
C93
100
AcDbEntity
  8
0
100
AcDbBlockEnd
  0
BLOCK
  5
CAA
330
CA0
100
AcDbEntity
  8
0
100
AcDbBlockBegin
  2
*D35
 70
     1
 10
0.0
 20
0.0
 30
0.0
  3
*D35
  1

  0
LINE
  5
CA1
330
CA0
100
AcDbEntity
  8
寸法線
 62
     0
100
AcDbLine
 10
626.341614404088
 20
393.5000000001799
 30
0.0
 11
656.6354151828599
 21
393.5000000001799
 31
0.0
  0
LINE
  5
CA2
330
CA0
100
AcDbEntity
  8
寸法線
 62
     0
100
AcDbLine
 10
626.341614404088
 20
266.5000000001799
 30
0.0
 11
656.6354151828599
 21
266.5000000001799
 31
0.0
  0
LINE
  5
CA3
330
CA0
100
AcDbEntity
  8
寸法線
 62
     0
100
AcDbLine
 10
652.8854151828599
 20
386.0000000001797
 30
0.0
 11
652.8854151828599
 21
274.0000000001797
 31
0.0
  0
SOLID
  5
CA4
330
CA0
100
AcDbEntity
  8
寸法線
 62
     0
100
AcDbTrace
 10
651.6354151828599
 20
386.0000000001797
 30
0.0
 11
654.1354151828599
 21
386.0000000001797
 31
0.0
 12
652.8854151828599
 22
393.5000000001799
 32
0.0
 13
652.8854151828599
 23
393.5000000001799
 33
0.0
  0
SOLID
  5
CA5
330
CA0
100
AcDbEntity
  8
寸法線
 62
     0
100
AcDbTrace
 10
651.6354151828599
 20
274.0000000001797
 30
0.0
 11
654.1354151828599
 21
274.0000000001797
 31
0.0
 12
652.8854151828599
 22
266.5000000001799
 32
0.0
 13
652.8854151828599
 23
266.5000000001799
 33
0.0
  0
MTEXT
  5
CA6
330
CA0
100
AcDbEntity
  8
寸法線
 62
     0
100
AcDbMText
 10
647.2596769938835
 20
330.0000000001798
 30
0.0
 40
7.5
 41
0.0
 71
     5
 72
     5
  1
127
 11
0.0000000000000001
 21
1.0
 31
0.0
 73
     1
 44
1.0
1001
ACAD
1000
MTEXTBEGIN
1070
    73
1070
     1
1070
    44
1040
1.0
1070
    74
1070
     0
1000
MTEXTEND
  0
POINT
  5
CA7
330
CA0
100
AcDbEntity
  8
DEFPOINTS
 62
     0
100
AcDbPoint
 10
624.8416144040882
 20
393.5000000001799
 30
0.0
  0
POINT
  5
CA8
330
CA0
100
AcDbEntity
  8
DEFPOINTS
 62
     0
100
AcDbPoint
 10
624.8416144040882
 20
266.5000000001799
 30
0.0
  0
POINT
  5
CA9
330
CA0
100
AcDbEntity
  8
DEFPOINTS
 62
     0
100
AcDbPoint
 10
652.8854151828599
 20
266.5000000001799
 30
0.0
  0
ENDBLK
  5
CAB
330
CA0
100
AcDbEntity
  8
0
100
AcDbBlockEnd
  0
BLOCK
  5
CB7
330
CAD
100
AcDbEntity
  8
0
100
AcDbBlockBegin
  2
*D36
 70
     1
 10
0.0
 20
0.0
 30
0.0
  3
*D36
  1

  0
LINE
  5
CAE
330
CAD
100
AcDbEntity
  8
寸法線
 62
     0
100
AcDbLine
 10
186.4422934376858
 20
497.247106219545
 30
0.0
 11
195.7679769856822
 21
507.6194872394951
 31
0.0
  0
LINE
  5
CAF
330
CAD
100
AcDbEntity
  8
寸法線
 62
     0
100
AcDbLine
 10
162.6179354673467
 20
518.6673011331556
 30
0.0
 11
171.9436190153431
 21
529.0396821531056
 31
0.0
  0
LINE
  5
CB0
330
CAD
100
AcDbEntity
  8
寸法線
 62
     0
100
AcDbLine
 10
187.683530126266
 20
509.8452947283123
 30
0.0
 11
175.013641139939
 21
521.2366401722825
 31
0.0
  0
SOLID
  5
CB1
330
CAD
100
AcDbEntity
  8
寸法線
 62
     0
100
AcDbTrace
 10
188.5192675820694
 20
510.7748338103133
 30
0.0
 11
186.8477926704626
 21
508.9157556463113
 31
0.0
 12
193.260764618272
 22
504.830869993492
 32
0.0
 13
193.260764618272
 23
504.830869993492
 33
0.0
  0
SOLID
  5
CB2
330
CAD
100
AcDbEntity
  8
寸法線
 62
     0
100
AcDbTrace
 10
175.8493785957425
 20
522.1661792542834
 30
0.0
 11
174.1779036841357
 21
520.3071010902813
 31
0.0
 12
169.436406647933
 22
526.2510649071026
 32
0.0
 13
169.436406647933
 23
526.2510649071026
 33
0.0
  0
MTEXT
  5
CB3
330
CAD
100
AcDbEntity
  8
寸法線
 62
     0
100
AcDbMText
 10
185.1098977299594
 20
519.7244422597045
 30
0.0
 40
7.5
 41
0.0
 71
     5
 72
     5
  1
32
 11
0.7436312656008055
 21
-0.6685899646427132
 31
0.0
 73
     1
 44
1.0
1001
ACAD
1000
MTEXTBEGIN
1070
    73
1070
     1
1070
    44
1040
1.0
1070
    74
1070
     0
1000
MTEXTEND
  0
POINT
  5
CB4
330
CAD
100
AcDbEntity
  8
DEFPOINTS
 62
     0
100
AcDbPoint
 10
185.4394084907217
 20
496.1316593211437
 30
0.0
  0
POINT
  5
CB5
330
CAD
100
AcDbEntity
  8
DEFPOINTS
 62
     0
100
AcDbPoint
 10
161.6150505203826
 20
517.5518542347544
 30
0.0
  0
POINT
  5
CB6
330
CAD
100
AcDbEntity
  8
DEFPOINTS
 62
     0
100
AcDbPoint
 10
169.436406647933
 20
526.2510649071026
 30
0.0
  0
ENDBLK
  5
CB8
330
CAD
100
AcDbEntity
  8
0
100
AcDbBlockEnd
  0
BLOCK
  5
CE1
330
CD7
100
AcDbEntity
  8
0
100
AcDbBlockBegin
  2
*D37
 70
     1
 10
0.0
 20
0.0
 30
0.0
  3
*D37
  1

  0
LINE
  5
CE3
330
CD7
100
AcDbEntity
  8
寸法線
 62
     0
100
AcDbLine
 10
279.8999999998799
 20
1071.5
 30
0.0
 11
279.8999999998799
 21
1087.691665268214
 31
0.0
  0
LINE
  5
CE4
330
CD7
100
AcDbEntity
  8
寸法線
 62
     0
100
AcDbLine
 10
409.0999999998798
 20
1071.5
 30
0.0
 11
409.0999999998798
 21
1087.691665268214
 31
0.0
  0
LINE
  5
CE5
330
CD7
100
AcDbEntity
  8
寸法線
 62
     0
100
AcDbLine
 10
287.3999999998799
 20
1083.941665268214
 30
0.0
 11
401.59999999988
 21
1083.941665268214
 31
0.0
  0
SOLID
  5
CE6
330
CD7
100
AcDbEntity
  8
寸法線
 62
     0
100
AcDbTrace
 10
287.3999999998799
 20
1085.191665268214
 30
0.0
 11
287.3999999998799
 21
1082.691665268214
 31
0.0
 12
279.8999999998799
 22
1083.941665268214
 32
0.0
 13
279.8999999998799
 23
1083.941665268214
 33
0.0
  0
SOLID
  5
CE7
330
CD7
100
AcDbEntity
  8
寸法線
 62
     0
100
AcDbTrace
 10
401.59999999988
 20
1085.191665268214
 30
0.0
 11
401.59999999988
 21
1082.691665268214
 31
0.0
 12
409.0999999998798
 22
1083.941665268214
 32
0.0
 13
409.0999999998798
 23
1083.941665268214
 33
0.0
  0
MTEXT
  5
CE8
330
CD7
100
AcDbEntity
  8
寸法線
 62
     0
100
AcDbMText
 10
344.4999999998799
 20
1089.569216053514
 30
0.0
 40
7.5
 41
0.0
 71
     5
 72
     5
  1
内径129.2
 73
     1
 44
1.0
1001
ACAD
1000
MTEXTBEGIN
1070
    73
1070
     1
1070
    44
1040
1.0
1070
    74
1070
     0
1000
MTEXTEND
  0
POINT
  5
CE9
330
CD7
100
AcDbEntity
  8
DEFPOINTS
 62
     0
100
AcDbPoint
 10
279.8999999998799
 20
1070.0
 30
0.0
  0
POINT
  5
CEA
330
CD7
100
AcDbEntity
  8
DEFPOINTS
 62
     0
100
AcDbPoint
 10
409.0999999998798
 20
1070.0
 30
0.0
  0
POINT
  5
CEB
330
CD7
100
AcDbEntity
  8
DEFPOINTS
 62
     0
100
AcDbPoint
 10
409.0999999998798
 20
1083.941665268214
 30
0.0
  0
ENDBLK
  5
CE2
330
CD7
100
AcDbEntity
  8
0
100
AcDbBlockEnd
  0
BLOCK
  5
CF7
330
CED
100
AcDbEntity
  8
0
100
AcDbBlockBegin
  2
*D38
 70
     1
 10
0.0
 20
0.0
 30
0.0
  3
*D38
  1

  0
LINE
  5
D26
330
CED
100
AcDbEntity
  8
寸法線
 62
     0
100
AcDbLine
 10
274.8999999998799
 20
1071.5
 30
0.0
 11
274.8999999998799
 21
1108.495047564719
 31
0.0
  0
LINE
  5
D27
330
CED
100
AcDbEntity
  8
寸法線
 62
     0
100
AcDbLine
 10
414.09999999988
 20
1071.5
 30
0.0
 11
414.09999999988
 21
1108.495047564719
 31
0.0
  0
LINE
  5
D28
330
CED
100
AcDbEntity
  8
寸法線
 62
     0
100
AcDbLine
 10
282.3999999998799
 20
1104.745047564719
 30
0.0
 11
406.5999999998799
 21
1104.745047564719
 31
0.0
  0
SOLID
  5
D29
330
CED
100
AcDbEntity
  8
寸法線
 62
     0
100
AcDbTrace
 10
282.3999999998799
 20
1105.995047564719
 30
0.0
 11
282.3999999998799
 21
1103.495047564719
 31
0.0
 12
274.8999999998799
 22
1104.745047564719
 32
0.0
 13
274.8999999998799
 23
1104.745047564719
 33
0.0
  0
SOLID
  5
D2A
330
CED
100
AcDbEntity
  8
寸法線
 62
     0
100
AcDbTrace
 10
406.5999999998799
 20
1105.995047564719
 30
0.0
 11
406.5999999998799
 21
1103.495047564719
 31
0.0
 12
414.09999999988
 22
1104.745047564719
 32
0.0
 13
414.09999999988
 23
1104.745047564719
 33
0.0
  0
MTEXT
  5
D2B
330
CED
100
AcDbEntity
  8
寸法線
 62
     0
100
AcDbMText
 10
344.4999999998799
 20
1110.745047564719
 30
0.0
 40
7.5
 41
0.0
 71
     5
 72
     5
  1
ツバ径139.2(t1.0)
 73
     1
 44
1.0
1001
ACAD
1000
MTEXTBEGIN
1070
    73
1070
     1
1070
    44
1040
1.0
1070
    74
1070
     0
1000
MTEXTEND
  0
POINT
  5
D2C
330
CED
100
AcDbEntity
  8
DEFPOINTS
 62
     0
100
AcDbPoint
 10
274.8999999998799
 20
1070.0
 30
0.0
  0
POINT
  5
D2D
330
CED
100
AcDbEntity
  8
DEFPOINTS
 62
     0
100
AcDbPoint
 10
414.09999999988
 20
1070.0
 30
0.0
  0
POINT
  5
D2E
330
CED
100
AcDbEntity
  8
DEFPOINTS
 62
     0
100
AcDbPoint
 10
414.09999999988
 20
1104.745047564719
 30
0.0
  0
ENDBLK
  5
CF8
330
CED
100
AcDbEntity
  8
0
100
AcDbBlockEnd
  0
BLOCK
  5
D0A
330
D03
100
AcDbEntity
  8
0
100
AcDbBlockBegin
  2
*D39
 70
     1
 10
0.0
 20
0.0
 30
0.0
  3
*D39
  1

  0
LINE
  5
D2F
330
D03
100
AcDbEntity
  8
寸法線
 62
     0
100
AcDbLine
 10
439.7037529512449
 20
360.9192105173377
 30
0.0
 11
509.1038681838472
 21
449.0807894829024
 31
0.0
  0
SOLID
  5
D30
330
D03
100
AcDbEntity
  8
寸法線
 62
     0
100
AcDbTrace
 10
438.7215606722167
 20
361.6923847066492
 30
0.0
 11
440.685945230273
 21
360.1460363280261
 31
0.0
 12
435.0647078153756
 22
355.0260568431689
 32
0.0
 13
435.0647078153756
 23
355.0260568431689
 33
0.0
  0
SOLID
  5
D31
330
D03
100
AcDbEntity
  8
寸法線
 62
     0
100
AcDbTrace
 10
508.1216759048191
 20
449.8539636722139
 30
0.0
 11
510.0860604628755
 21
448.3076152935907
 31
0.0
 12
513.7429133197165
 22
454.9739431570712
 32
0.0
 13
513.7429133197165
 23
454.9739431570712
 33
0.0
  0
MTEXT
  5
D32
102
{ACAD_XDICTIONARY
360
E7D
102
}
330
D03
100
AcDbEntity
  8
寸法線
 62
     0
100
AcDbMText
 10
484.6737701904793
 20
427.1415148365632
 30
0.0
 40
7.5
 41
0.0
 71
     5
 72
     5
  1
内径\U+2205127.2
 11
0.6185393514492197
 21
0.7857538232225019
 31
0.0
 73
     1
 44
1.0
1001
ACAD
1000
MTEXTBEGIN
1070
    73
1070
     1
1070
    44
1040
1.0
1070
    74
1070
     0
1000
MTEXTEND
  0
POINT
  5
D33
330
D03
100
AcDbEntity
  8
DEFPOINTS
 62
     0
100
AcDbPoint
 10
513.7429133197165
 20
454.9739431570712
 30
0.0
  0
POINT
  5
D34
330
D03
100
AcDbEntity
  8
DEFPOINTS
 62
     0
100
AcDbPoint
 10
435.0647078153756
 20
355.0260568431689
 30
0.0
  0
ENDBLK
  5
D0B
330
D03
100
AcDbEntity
  8
0
100
AcDbBlockEnd
  0
BLOCK
  5
D3D
330
D36
100
AcDbEntity
  8
0
100
AcDbBlockBegin
  2
*D40
 70
     1
 10
0.0
 20
0.0
 30
0.0
  3
*D40
  1

  0
LINE
  5
D4B
330
D36
100
AcDbEntity
  8
寸法線
 62
     0
100
AcDbLine
 10
400.9456345255483
 20
381.5840572989838
 30
0.0
 11
393.7998975564823
 21
379.3062418611302
 31
0.0
  0
LINE
  5
D4C
330
D36
100
AcDbEntity
  8
寸法線
 62
     0
100
AcDbLine
 10
547.8619866095438
 20
428.415942701256
 30
0.0
 11
610.3649384013457
 21
448.3397363028281
 31
0.0
  0
LINE
  5
D4D
330
D36
100
AcDbEntity
  8
寸法線
 62
     0
100
AcDbLine
 10
408.0913714946142
 20
383.8618727368375
 30
0.0
 11
540.7162496404778
 21
426.1381272634023
 31
0.0
  0
SOLID
  5
D4E
330
D36
100
AcDbEntity
  8
寸法線
 62
     0
100
AcDbTrace
 10
400.5659986192393
 20
382.7750134604947
 30
0.0
 11
401.3252704318572
 21
380.3931011374729
 31
0.0
 12
408.0913714946142
 22
383.8618727368375
 32
0.0
 13
408.0913714946142
 23
383.8618727368375
 33
0.0
  0
SOLID
  5
D4F
330
D36
100
AcDbEntity
  8
寸法線
 62
     0
100
AcDbTrace
 10
547.4823507032348
 20
429.6068988627668
 30
0.0
 11
548.2416225158527
 21
427.224986539745
 31
0.0
 12
540.7162496404778
 22
426.1381272634023
 32
0.0
 13
540.7162496404778
 23
426.1381272634023
 33
0.0
  0
MTEXT
  5
D50
102
{ACAD_XDICTIONARY
360
E7F
102
}
330
D36
100
AcDbEntity
  8
寸法線
 62
     0
100
AcDbMText
 10
580.977194715836
 20
444.8784802465444
 30
0.0
 40
7.5
 41
0.0
 71
     5
 72
     5
  1
ツバ径\U+2205139.2
 11
0.952764929208789
 21
0.3037087250471602
 31
0.0
 73
     1
 44
1.0
1001
ACAD
1000
MTEXTBEGIN
1070
    73
1070
     1
1070
    44
1040
1.0
1070
    74
1070
     0
1000
MTEXTEND
  0
POINT
  5
D51
330
D36
100
AcDbEntity
  8
DEFPOINTS
 62
     0
100
AcDbPoint
 10
540.7162496404778
 20
426.1381272634023
 30
0.0
  0
POINT
  5
D52
330
D36
100
AcDbEntity
  8
DEFPOINTS
 62
     0
100
AcDbPoint
 10
408.0913714946142
 20
383.8618727368375
 30
0.0
  0
ENDBLK
  5
D3E
330
D36
100
AcDbEntity
  8
0
100
AcDbBlockEnd
  0
BLOCK
  5
E46
330
E45
100
AcDbEntity
  8
0
100
AcDbBlockBegin
  2
*D41
 70
     1
 10
0.0
 20
0.0
 30
0.0
  3
*D41
  1

  0
LINE
  5
E48
330
E45
100
AcDbEntity
  8
寸法線
 62
     0
370
    -2
100
AcDbLine
 10
415.5999999998799
 20
1070.0
 30
0.0
 11
676.3793630144219
 21
1070.0
 31
0.0
  0
LINE
  5
E49
330
E45
100
AcDbEntity
  8
寸法線
 62
     0
370
    -2
100
AcDbLine
 10
345.9999999998798
 20
611.7999999999998
 30
0.0
 11
676.3793630144217
 21
611.7999999999998
 31
0.0
  0
LINE
  5
E4A
330
E45
100
AcDbEntity
  8
寸法線
 62
     0
370
    -2
100
AcDbLine
 10
672.6293630144218
 20
1062.5
 30
0.0
 11
672.6293630144217
 21
619.2999999999998
 31
0.0
  0
SOLID
  5
E4B
330
E45
100
AcDbEntity
  8
寸法線
 62
     0
100
AcDbTrace
 10
671.3793630144218
 20
1062.5
 30
0.0
 11
673.8793630144218
 21
1062.5
 31
0.0
 12
672.6293630144218
 22
1070.0
 32
0.0
 13
672.6293630144218
 23
1070.0
 33
0.0
  0
SOLID
  5
E4C
330
E45
100
AcDbEntity
  8
寸法線
 62
     0
100
AcDbTrace
 10
671.3793630144217
 20
619.2999999999998
 30
0.0
 11
673.8793630144217
 21
619.2999999999998
 31
0.0
 12
672.6293630144217
 22
611.7999999999998
 32
0.0
 13
672.6293630144217
 23
611.7999999999998
 33
0.0
  0
MTEXT
  5
E4D
330
E45
100
AcDbEntity
  8
寸法線
 62
     0
100
AcDbMText
 10
667.0036248254453
 20
840.9
 30
0.0
 40
7.5
 41
0.0
 71
     5
 72
     1
  1
458.2
 11
0.0000000000000001
 21
1.0
 31
0.0
 73
     1
 44
1.0
1001
ACAD
1000
MTEXTBEGIN
1070
    73
1070
     1
1070
    44
1040
1.0
1070
    74
1070
     0
1000
MTEXTEND
  0
POINT
  5
E4E
330
E45
100
AcDbEntity
  8
DEFPOINTS
 62
     0
100
AcDbPoint
 10
414.09999999988
 20
1070.0
 30
0.0
  0
POINT
  5
E4F
330
E45
100
AcDbEntity
  8
DEFPOINTS
 62
     0
100
AcDbPoint
 10
344.4999999998799
 20
611.7999999999998
 30
0.0
  0
POINT
  5
E50
330
E45
100
AcDbEntity
  8
DEFPOINTS
 62
     0
100
AcDbPoint
 10
672.6293630144217
 20
611.7999999999998
 30
0.0
  0
ENDBLK
  5
E47
330
E45
100
AcDbEntity
  8
0
100
AcDbBlockEnd
  0
BLOCK
  5
E53
330
E52
100
AcDbEntity
  8
0
100
AcDbBlockBegin
  2
*D42
 70
     1
 10
0.0
 20
0.0
 30
0.0
  3
*D42
  1

  0
LINE
  5
E55
330
E52
100
AcDbEntity
  8
寸法線
 62
     0
370
    -2
100
AcDbLine
 10
114.49999999988
 20
825.4619283875703
 30
0.0
 11
114.49999999988
 21
1133.157152820678
 31
0.0
  0
LINE
  5
E56
330
E52
100
AcDbEntity
  8
寸法線
 62
     0
370
    -2
100
AcDbLine
 10
626.8416144040879
 20
825.4619283875703
 30
0.0
 11
626.8416144040879
 21
1133.157152820678
 31
0.0
  0
LINE
  5
E57
330
E52
100
AcDbEntity
  8
寸法線
 62
     0
370
    -2
100
AcDbLine
 10
121.99999999988
 20
1129.407152820678
 30
0.0
 11
619.3416144040879
 21
1129.407152820678
 31
0.0
  0
SOLID
  5
E58
330
E52
100
AcDbEntity
  8
寸法線
 62
     0
100
AcDbTrace
 10
121.99999999988
 20
1130.657152820678
 30
0.0
 11
121.99999999988
 21
1128.157152820678
 31
0.0
 12
114.49999999988
 22
1129.407152820678
 32
0.0
 13
114.49999999988
 23
1129.407152820678
 33
0.0
  0
SOLID
  5
E59
330
E52
100
AcDbEntity
  8
寸法線
 62
     0
100
AcDbTrace
 10
619.3416144040879
 20
1130.657152820678
 30
0.0
 11
619.3416144040879
 21
1128.157152820678
 31
0.0
 12
626.8416144040879
 22
1129.407152820678
 32
0.0
 13
626.8416144040879
 23
1129.407152820678
 33
0.0
  0
MTEXT
  5
E5A
330
E52
100
AcDbEntity
  8
寸法線
 62
     0
100
AcDbMText
 10
370.670807201984
 20
1135.032891009654
 30
0.0
 40
7.5
 41
0.0
 71
     5
 72
     1
  1
512.3
 73
     1
 44
1.0
1001
ACAD
1000
MTEXTBEGIN
1070
    73
1070
     1
1070
    44
1040
1.0
1070
    74
1070
     0
1000
MTEXTEND
  0
POINT
  5
E5B
330
E52
100
AcDbEntity
  8
DEFPOINTS
 62
     0
100
AcDbPoint
 10
114.49999999988
 20
823.9619283875702
 30
0.0
  0
POINT
  5
E5C
330
E52
100
AcDbEntity
  8
DEFPOINTS
 62
     0
100
AcDbPoint
 10
626.8416144040879
 20
823.9619283875702
 30
0.0
  0
POINT
  5
E5D
330
E52
100
AcDbEntity
  8
DEFPOINTS
 62
     0
100
AcDbPoint
 10
626.8416144040879
 20
1129.407152820678
 30
0.0
  0
ENDBLK
  5
E54
330
E52
100
AcDbEntity
  8
0
100
AcDbBlockEnd
  0
ENDSEC
  0
SECTION
  2
ENTITIES
  0
INSERT
  5
26E
330
1F
100
AcDbEntity
  8
ASHADE
 62
     1
100
AcDbBlockReference
  2
AVE_RENDER
 10
0.0
 20
0.0
 30
0.0
1001
AVE_RENDER
1002
{
1070
     7
1000
Pref
1070
    30
1070
    20
1070
     1
1070
     0
1000

1070
    10
1070
     1
1070
    10
1040
1.0
1070
     1
1040
0.3
1040
0.7
1040
0.0
1040
10.0
1010
-1.0
1020
-1.0
1030
-1.0
1040
0.3
1070
    49
1070
     0
1070
     0
1010
1.0
1020
1.0
1030
1.0
1040
45.0
1070
     1
1070
     0
1000
WCS
1040
0.0
1070
     0
1040
10.0
1002
}
  0
INSERT
  5
26F
330
1F
100
AcDbEntity
  8
ASHADE
 62
     3
100
AcDbBlockReference
  2
AVE_RENDER
 10
0.0
 20
0.0
 30
0.0
1001
AVE_RENDER
1002
{
1070
     0
1000
Full Opt
1070
     0
1070
     1
1070
     1
1070
     1
1070
     0
1070
     0
1070
     0
1070
     1
1070
     1
1040
0.0001
1040
0.0001
1002
}
  0
INSERT
  5
270
330
1F
100
AcDbEntity
  8
ASHADE
 62
     4
100
AcDbBlockReference
  2
AVE_RENDER
 10
0.0
 20
0.0
 30
0.0
1001
AVE_RENDER
1002
{
1070
     0
1000
Quick Opt
1070
     0
1070
     1
1070
     1
1070
     1
1070
     0
1070
     0
1070
     1
1002
}
  0
INSERT
  5
271
330
1F
100
AcDbEntity
  8
ASHADE
 62
     5
100
AcDbBlockReference
  2
AVE_RENDER
 10
0.0
 20
0.0
 30
0.0
1001
AVE_RENDER
1002
{
1070
     1
1000
Scanl Opt
1070
     2
1070
     0
1070
     2
1040
2.0
1040
4.0
1070
     0
1070
     1
1070
     0
1040
0.03
1002
}
  0
INSERT
  5
272
330
1F
100
AcDbEntity
  8
ASHADE
 62
     6
100
AcDbBlockReference
  2
AVE_RENDER
 10
0.0
 20
0.0
 30
0.0
1001
AVE_RENDER
1002
{
1070
     2
1000
Raytr Opt
1070
     2
1070
     0
1070
     2
1040
2.0
1040
4.0
1070
     0
1070
     1
1070
     1
1040
0.03
1070
     3
1040
0.03
1002
}
  0
INSERT
  5
273
330
1F
100
AcDbEntity
  8
ASHADE
 62
     7
100
AcDbBlockReference
  2
AVE_RENDER
 10
0.0
 20
0.0
 30
0.0
1001
AVE_RENDER
1002
{
1070
     0
1000
RFile Opt
1070
     1
1070
   640
1070
   480
1070
 10000
1070
     1
1070
     8
1070
     8
1070
     0
1070
     0
1070
     0
1070
     0
1070
     0
1070
     0
1070
     0
1002
}
  0
INSERT
  5
274
330
1F
100
AcDbEntity
  8
ASHADE
 62
     8
100
AcDbBlockReference
  2
AVE_RENDER
 10
0.0
 20
0.0
 30
0.0
1001
AVE_RENDER
1002
{
1070
     0
1000
Fog Opt
1070
     0
1070
     0
1040
0.0
1040
1.0
1040
0.0
1040
1.0
1010
0.5
1020
0.5
1030
0.5
1002
}
  0
INSERT
  5
275
330
1F
100
AcDbEntity
  8
ASHADE
 62
     9
100
AcDbBlockReference
  2
AVE_RENDER
 10
0.0
 20
0.0
 30
0.0
1001
AVE_RENDER
1002
{
1070
     0
1000
BG Opt
1070
     0
1070
     1
1010
1.0
1020
1.0
1030
0.99
1010
1.0
1020
0.0
1030
0.0
1010
0.0
1020
1.0
1030
0.0
1010
0.0
1020
0.0
1030
1.0
1040
0.5
1040
0.33
1040
0.0
1000

1070
     1
1000

1070
     1
1070
     1
1040
1.0
1040
1.0
1040
0.0
1040
0.0
1070
     0
1002
}
  0
INSERT
  5
27C
330
1F
100
AcDbEntity
  8
ASHADE
 62
     1
100
AcDbBlockReference
  2
AVE_GLOBAL
 10
0.0
 20
0.0
 30
0.0
1001
AVE_MATERIAL
1002
{
1000
*GLOBAL*
1000
2
1000
Global finish.
1002
{
1002
}
1002
{
1070
    63
1002
{
1002
{
1010
-1.0
1020
-1.0
1030
-1.0
1002
}
1040
0.1000000014901161
1000

1040
0.0
1002
{
1002
}
1040
0.0
1002
{
1002
}
1040
0.0
1002
}
1002
{
1002
{
1010
-1.0
1020
-1.0
1030
-1.0
1002
}
1040
0.6999999880790711
1000

1040
0.0
1002
{
1002
}
1040
0.0
1002
{
1002
}
1040
0.0
1002
}
1002
{
1002
{
1010
-1.0
1020
-1.0
1030
-1.0
1002
}
1040
0.2000000029802322
1000

1040
0.0
1002
{
1002
}
1040
0.0
1002
{
1002
}
1040
0.0
1002
}
1002
{
1070
     0
1002
{
1070
     1
1002
{
1040
1.0
1040
1.0
1000

1040
0.0
1002
{
1002
}
1040
0.0
1002
{
1002
}
1040
0.0
1002
}
1002
}
1040
1.0
1040
0.0
1040
0.0
1002
}
1002
{
1040
1.0
1040
1.0
1000

1040
0.0
1002
{
1002
}
1040
0.0
1002
{
1002
}
1040
0.0
1002
}
1002
{
1040
0.5
1040
1.0
1000

1040
0.0
1002
{
1002
}
1040
0.0
1002
{
1002
}
1040
0.0
1002
}
1002
{
1070
     0
1040
0.0
1002
{
1002
}
1040
1.0
1002
{
1002
}
1040
0.0
1002
}
1002
{
1040
0.0
1002
{
1002
{
1010
0.0
1020
0.0
1030
0.0
1002
}
1040
1.0
1000

1040
0.0
1002
{
1002
}
1040
0.0
1002
{
1002
}
1040
0.0
1002
}
1002
}
1002
{
1002
{
1070
     1
1002
{
1040
0.0
1040
1.0
1000

1040
0.0
1002
{
1002
}
1040
0.0
1002
{
1002
}
1040
0.0
1002
}
1002
}
1040
0.0
1002
{
1002
}
1010
1.0
1020
0.0
1030
0.0
1010
0.0
1020
1.0
1030
0.0
1010
0.0
1020
0.0
1030
1.0
1070
     0
1002
}
1002
{
1002
{
1040
1.0
1040
1.0
1002
{
1070
     1
1002
{
1040
1.0
1040
1.0
1000

1040
0.0
1002
{
1002
}
1040
0.0
1002
{
1002
}
1040
0.0
1002
}
1002
}
1002
}
1070
     0
1040
0.0
1002
{
1002
}
1002
}
1002
{
1002
}
1002
}
1002
{
1071
        3
1070
     3
1070
     0
1002
{
1070
     2
1070
     0
1070
     0
1040
0.0
1002
}
1070
     0
1070
     2
1002
{
1002
}
1002
}
1002
{
1040
8030.0
1040
190.3000030517578
1040
0.3050000071525574
1040
228.0
1040
545.0
1040
14.0
1040
17.39999961853027
1040
0.4560000002384186
1002
}
1002
}
  0
LINE
  5
60E
330
1F
100
AcDbEntity
  8
外形線
100
AcDbLine
 10
569.541662809224
 20
377.5000000001778
 30
0.0
 11
578.8416144040881
 21
377.5000000001798
 31
0.0
  0
LINE
  5
60F
330
1F
100
AcDbEntity
  8
外形線
100
AcDbLine
 10
578.8416144040881
 20
377.5000000001798
 30
0.0
 11
578.8416144040881
 21
282.50000000018
 31
0.0
  0
LINE
  5
610
330
1F
100
AcDbEntity
  8
外形線
100
AcDbLine
 10
578.8416144040881
 20
282.50000000018
 30
0.0
 11
569.5416628092483
 21
282.5000000001777
 31
0.0
  0
LINE
  5
611
330
1F
100
AcDbEntity
  8
外形線
100
AcDbLine
 10
569.7504162037247
 20
283.5000000001776
 30
0.0
 11
577.8416144040881
 21
283.5000000001798
 31
0.0
  0
LINE
  5
612
330
1F
100
AcDbEntity
  8
外形線
100
AcDbLine
 10
577.8416144040881
 20
283.5000000001798
 30
0.0
 11
577.8416144040881
 21
376.5000000001799
 31
0.0
  0
LINE
  5
613
330
1F
100
AcDbEntity
  8
外形線
100
AcDbLine
 10
577.8416144040881
 20
376.5000000001799
 30
0.0
 11
569.7504162037009
 21
376.5000000001779
 31
0.0
  0
LWPOLYLINE
  5
620
330
1F
100
AcDbEntity
  8
外形線
100
AcDbPolyline
 90
        4
 70
     1
 43
0.0
 10
114.49999999988
 20
790.0
 10
118.99999999988
 20
790.0
 10
118.99999999988
 20
740.0
 10
114.49999999988
 20
740.0
  0
LINE
  5
621
330
1F
100
AcDbEntity
  8
外形線
100
AcDbLine
 10
118.99999999988
 20
753.2
 30
0.0
 11
344.4999999999998
 21
753.2
 31
0.0
  0
LINE
  5
622
330
1F
100
AcDbEntity
  8
外形線
100
AcDbLine
 10
344.5
 20
750.0
 30
0.0
 11
118.99999999988
 21
750.0
 31
0.0
  0
LINE
  5
623
330
1F
100
AcDbEntity
  8
外形線
100
AcDbLine
 10
344.5
 20
790.0
 30
0.0
 11
574.4999999998798
 21
790.0
 31
0.0
  0
LINE
  5
625
330
1F
100
AcDbEntity
  8
外形線
100
AcDbLine
 10
574.4999999998798
 20
740.0
 30
0.0
 11
344.5
 21
740.0
 31
0.0
  0
CIRCLE
  5
634
330
1F
100
AcDbEntity
  8
外形線
100
AcDbCircle
 10
344.4999999998799
 20
180.00000000012
 30
0.0
 40
63.6
  0
LINE
  5
6D0
330
1F
100
AcDbEntity
  8
外形線
100
AcDbLine
 10
274.8999999999999
 20
690.0
 30
0.0
 11
414.1
 21
690.0
 31
0.0
  0
LINE
  5
6D2
330
1F
100
AcDbEntity
  8
外形線
100
AcDbLine
 10
280.8999999999999
 20
726.7999999999998
 30
0.0
 11
280.8999999999999
 21
690.0
 31
0.0
  0
LINE
  5
6D3
330
1F
100
AcDbEntity
  8
隠線
100
AcDbLine
 10
408.1
 20
740.0
 30
0.0
 11
408.1
 21
690.0
 31
0.0
  0
LWPOLYLINE
  5
6DA
330
1F
100
AcDbEntity
  8
外形線
100
AcDbPolyline
 90
        4
 70
     1
 43
0.0
 10
570.0000000000001
 20
770.0
 10
578.8416144040881
 20
770.0
 10
578.8416144040881
 20
740.0
 10
570.0000000000001
 20
740.0
  0
LINE
  5
6DB
330
1F
100
AcDbEntity
  8
隠線
100
AcDbLine
 10
577.8416144040881
 20
770.0
 30
0.0
 11
577.8416144040881
 21
740.0
 31
0.0
  0
LINE
  5
6DD
330
1F
100
AcDbEntity
  8
隠線
100
AcDbLine
 10
574.4999999998798
 20
770.0
 30
0.0
 11
574.4999999998798
 21
740.0
 31
0.0
  0
LINE
  5
6DE
330
1F
100
AcDbEntity
  8
外形線
100
AcDbLine
 10
574.4999999998798
 20
790.0
 30
0.0
 11
574.4999999998798
 21
770.0
 31
0.0
  0
LINE
  5
7A4
330
1F
100
AcDbEntity
  8
隠線
100
AcDbLine
 10
503.9213759250237
 20
495.7853369557027
 30
0.0
 11
500.7388462294766
 21
492.6028072601557
 31
0.0
  0
LINE
  5
7A5
330
1F
100
AcDbEntity
  8
隠線
100
AcDbLine
 10
510.2853369556981
 20
489.4213759250193
 30
0.0
 11
507.1028072601509
 21
486.2388462294723
 31
0.0
  0
LINE
  5
7A8
330
1F
100
AcDbEntity
  8
隠線
100
AcDbLine
 10
185.0786240749805
 20
164.2146630443019
 30
0.0
 11
188.2611537705278
 21
167.397192739849
 31
0.0
  0
LINE
  5
7A9
330
1F
100
AcDbEntity
  8
隠線
100
AcDbLine
 10
178.7146630443061
 20
170.5786240749853
 30
0.0
 11
181.8971927398533
 21
173.7611537705324
 31
0.0
  0
LINE
  5
7AA
330
1F
100
AcDbEntity
  8
隠線
100
AcDbLine
 10
510.2853369556122
 20
170.5786240751197
 30
0.0
 11
507.102807260065
 21
173.761153770667
 31
0.0
  0
LINE
  5
7AB
330
1F
100
AcDbEntity
  8
隠線
100
AcDbLine
 10
503.9213759249286
 20
164.2146630444452
 30
0.0
 11
500.7388462293816
 21
167.3971927399925
 31
0.0
  0
ELLIPSE
  5
7B2
330
1F
100
AcDbEntity
  8
外形線
100
AcDbEllipse
 10
507.1033564402726
 20
765.0
 30
0.0
 11
0.0
 21
-4.5
 31
0.0
210
0.0
220
0.0
230
1.0
 40
0.7071067811865659
 41
0.0
 42
6.283185307179585
  0
ELLIPSE
  5
7B5
330
1F
100
AcDbEntity
  8
外形線
100
AcDbEllipse
 10
503.9211013348293
 20
765.0
 30
0.0
 11
0.0
 21
-4.5
 31
0.0
210
0.0
220
0.0
230
1.0
 40
0.7071678012096451
 41
0.5236236860227153
 42
2.617968967567076
  0
CIRCLE
  5
7CB
330
1F
100
AcDbEntity
  8
隠線
100
AcDbCircle
 10
344.4999999998799
 20
180.00000000012
 30
0.0
 40
65.59999999999999
  0
CIRCLE
  5
7CC
330
1F
100
AcDbEntity
  8
外形線
100
AcDbCircle
 10
344.4999999998799
 20
180.00000000012
 30
0.0
 40
69.59999999999999
  0
CIRCLE
  5
7CE
330
1F
100
AcDbEntity
  8
外形線
100
AcDbCircle
 10
474.4038105675458
 20
255.0000000001199
 30
0.0
 40
69.59999999999999
  0
CIRCLE
  5
7CF
330
1F
100
AcDbEntity
  8
隠線
100
AcDbCircle
 10
474.4038105675458
 20
255.0000000001199
 30
0.0
 40
65.59999999999999
  0
CIRCLE
  5
7D0
330
1F
100
AcDbEntity
  8
外形線
100
AcDbCircle
 10
474.4038105675458
 20
255.0000000001199
 30
0.0
 40
63.6
  0
CIRCLE
  5
7D1
330
1F
100
AcDbEntity
  8
外形線
100
AcDbCircle
 10
474.403810567546
 20
405.0000000001199
 30
0.0
 40
69.59999999999999
  0
CIRCLE
  5
7D2
330
1F
100
AcDbEntity
  8
隠線
100
AcDbCircle
 10
474.403810567546
 20
405.0000000001199
 30
0.0
 40
65.59999999999999
  0
CIRCLE
  5
7D3
330
1F
100
AcDbEntity
  8
外形線
100
AcDbCircle
 10
474.403810567546
 20
405.0000000001199
 30
0.0
 40
63.6
  0
CIRCLE
  5
7D4
330
1F
100
AcDbEntity
  8
外形線
100
AcDbCircle
 10
344.4999999998801
 20
480.0000000001199
 30
0.0
 40
69.59999999999999
  0
CIRCLE
  5
7D5
330
1F
100
AcDbEntity
  8
隠線
100
AcDbCircle
 10
344.4999999998801
 20
480.0000000001199
 30
0.0
 40
65.59999999999999
  0
CIRCLE
  5
7D6
330
1F
100
AcDbEntity
  8
外形線
100
AcDbCircle
 10
344.4999999998801
 20
480.0000000001199
 30
0.0
 40
63.6
  0
CIRCLE
  5
7D7
330
1F
100
AcDbEntity
  8
外形線
100
AcDbCircle
 10
214.5961894322142
 20
405.0000000001199
 30
0.0
 40
69.59999999999999
  0
CIRCLE
  5
7D8
330
1F
100
AcDbEntity
  8
隠線
100
AcDbCircle
 10
214.5961894322142
 20
405.0000000001199
 30
0.0
 40
65.59999999999999
  0
CIRCLE
  5
7D9
330
1F
100
AcDbEntity
  8
外形線
100
AcDbCircle
 10
214.5961894322142
 20
405.0000000001199
 30
0.0
 40
63.6
  0
CIRCLE
  5
7DA
330
1F
100
AcDbEntity
  8
外形線
100
AcDbCircle
 10
214.596189432214
 20
255.00000000012
 30
0.0
 40
69.59999999999999
  0
CIRCLE
  5
7DB
330
1F
100
AcDbEntity
  8
隠線
100
AcDbCircle
 10
214.596189432214
 20
255.00000000012
 30
0.0
 40
65.59999999999999
  0
CIRCLE
  5
7DC
330
1F
100
AcDbEntity
  8
外形線
100
AcDbCircle
 10
214.596189432214
 20
255.00000000012
 30
0.0
 40
63.6
  0
LINE
  5
7DD
330
1F
100
AcDbEntity
  8
外形線
100
AcDbLine
 10
278.8999999999999
 20
726.7999999999998
 30
0.0
 11
278.8999999999999
 21
691.0
 31
0.0
  0
LINE
  5
7DE
330
1F
100
AcDbEntity
  8
外形線
100
AcDbLine
 10
410.0999999999998
 20
691.0
 30
0.0
 11
410.0999999999998
 21
740.0
 31
0.0
  0
LINE
  5
7DF
330
1F
100
AcDbEntity
  8
外形線
100
AcDbLine
 10
274.8999999999999
 20
691.0
 30
0.0
 11
274.8999999999999
 21
690.0
 31
0.0
  0
LINE
  5
7E0
330
1F
100
AcDbEntity
  8
外形線
100
AcDbLine
 10
414.1
 20
690.0
 30
0.0
 11
414.1
 21
691.0
 31
0.0
  0
LINE
  5
7E1
330
1F
100
AcDbEntity
  8
外形線
100
AcDbLine
 10
274.8999999999999
 20
691.0
 30
0.0
 11
278.8999999999999
 21
691.0
 31
0.0
  0
LINE
  5
7E3
330
1F
100
AcDbEntity
  8
外形線
100
AcDbLine
 10
344.5
 20
691.0
 30
0.0
 11
414.1
 21
691.0
 31
0.0
  0
LINE
  5
7E4
330
1F
100
AcDbEntity
  8
隠線
100
AcDbLine
 10
280.8999999999999
 20
691.0
 30
0.0
 11
344.5
 21
691.0
 31
0.0
  0
LINE
  5
7F9
330
1F
100
AcDbEntity
  8
外形線
100
AcDbLine
 10
404.8038105675457
 20
691.0
 30
0.0
 11
544.0038105675458
 21
691.0
 31
0.0
  0
LINE
  5
7FA
330
1F
100
AcDbEntity
  8
外形線
100
AcDbLine
 10
540.0038105675458
 20
691.0
 30
0.0
 11
540.0038105675458
 21
740.0
 31
0.0
  0
LINE
  5
7FB
330
1F
100
AcDbEntity
  8
隠線
100
AcDbLine
 10
538.0038105675459
 20
740.0
 30
0.0
 11
538.0038105675459
 21
690.0
 31
0.0
  0
LINE
  5
7FC
330
1F
100
AcDbEntity
  8
外形線
100
AcDbLine
 10
544.0038105675458
 20
690.0
 30
0.0
 11
544.0038105675458
 21
691.0
 31
0.0
  0
LINE
  5
805
330
1F
100
AcDbEntity
  8
外形線
100
AcDbLine
 10
404.8038105675457
 20
690.0
 30
0.0
 11
544.0038105675458
 21
690.0
 31
0.0
  0
LINE
  5
80B
330
1F
100
AcDbEntity
  8
隠線
100
AcDbLine
 10
409.8038105675457
 20
740.0
 30
0.0
 11
409.8038105675457
 21
690.0
 31
0.0
  0
LINE
  5
80C
330
1F
100
AcDbEntity
  8
隠線
100
AcDbLine
 10
408.8038105675457
 20
691.0
 30
0.0
 11
408.8038105675457
 21
740.0
 31
0.0
  0
LINE
  5
821
330
1F
100
AcDbEntity
  8
外形線
100
AcDbLine
 10
148.9961894322139
 20
750.0
 30
0.0
 11
148.9961894322139
 21
691.0
 31
0.0
  0
LINE
  5
824
330
1F
100
AcDbEntity
  8
外形線
100
AcDbLine
 10
144.9961894322139
 20
691.0
 30
0.0
 11
148.9961894322139
 21
691.0
 31
0.0
  0
LINE
  5
825
330
1F
100
AcDbEntity
  8
外形線
100
AcDbLine
 10
144.9961894322139
 20
691.0
 30
0.0
 11
144.9961894322139
 21
690.0
 31
0.0
  0
LINE
  5
834
330
1F
100
AcDbEntity
  8
外形線
100
AcDbLine
 10
284.196189432214
 20
691.0
 30
0.0
 11
280.1961894322141
 21
691.0
 31
0.0
  0
LINE
  5
835
330
1F
100
AcDbEntity
  8
外形線
100
AcDbLine
 10
284.196189432214
 20
691.0
 30
0.0
 11
284.196189432214
 21
690.0
 31
0.0
  0
LINE
  5
836
330
1F
100
AcDbEntity
  8
外形線
100
AcDbLine
 10
144.9961894322139
 20
690.0
 30
0.0
 11
284.196189432214
 21
690.0
 31
0.0
  0
LINE
  5
837
330
1F
100
AcDbEntity
  8
外形線
100
AcDbLine
 10
148.9961894322139
 20
691.0
 30
0.0
 11
274.8999999999999
 21
691.0
 31
0.0
  0
LINE
  5
838
330
1F
100
AcDbEntity
  8
隠線
100
AcDbLine
 10
150.996189432214
 20
750.0
 30
0.0
 11
150.996189432214
 21
691.0
 31
0.0
  0
LINE
  5
839
330
1F
100
AcDbEntity
  8
隠線
100
AcDbLine
 10
284.196189432214
 20
690.0
 30
0.0
 11
284.196189432214
 21
691.0
 31
0.0
  0
LINE
  5
83A
330
1F
100
AcDbEntity
  8
隠線
100
AcDbLine
 10
284.196189432214
 20
691.0
 30
0.0
 11
280.1961894322141
 21
691.0
 31
0.0
  0
LINE
  5
83B
330
1F
100
AcDbEntity
  8
隠線
100
AcDbLine
 10
280.1961894322141
 20
691.0
 30
0.0
 11
280.196189432214
 21
750.0
 31
0.0
  0
LINE
  5
83C
330
1F
100
AcDbEntity
  8
隠線
100
AcDbLine
 10
278.196189432214
 20
690.0
 30
0.0
 11
278.196189432214
 21
750.0
 31
0.0
  0
LINE
  5
8FC
330
1F
100
AcDbEntity
  8
外形線
100
AcDbLine
 10
315.0
 20
726.7999999999998
 30
0.0
 11
344.5
 21
726.7999999999998
 31
0.0
  0
LINE
  5
8FD
330
1F
100
AcDbEntity
  8
補助線
100
AcDbLine
 10
315.0
 20
726.7999999999998
 30
0.0
 11
344.5
 21
726.7999999999998
 31
0.0
  0
LINE
  5
8FE
330
1F
100
AcDbEntity
  8
0
  6
Continuous
 62
     4
100
AcDbLine
 10
315.0
 20
726.7999999999998
 30
0.0
 11
344.5
 21
726.7999999999998
 31
0.0
  0
LINE
  5
8FF
330
1F
100
AcDbEntity
  8
0
  6
Continuous
 62
     4
100
AcDbLine
 10
316.5
 20
611.7999999999998
 30
0.0
 11
372.5
 21
611.7999999999998
 31
0.0
  0
LINE
  5
900
330
1F
100
AcDbEntity
  8
0
  6
Continuous
 62
     4
100
AcDbLine
 10
314.2
 20
670.2999999999998
 30
0.0
 11
344.5
 21
670.2999999999998
 31
0.0
  0
LINE
  5
901
330
1F
100
AcDbEntity
  8
0
  6
Continuous
 62
     4
100
AcDbLine
 10
314.5
 20
618.7999999999998
 30
0.0
 11
374.5
 21
618.7999999999998
 31
0.0
  0
LINE
  5
902
330
1F
100
AcDbEntity
  8
0
  6
Continuous
 62
     4
100
AcDbLine
 10
315.0
 20
613.2999999999998
 30
0.0
 11
374.0
 21
613.2999999999998
 31
0.0
  0
LINE
  5
903
330
1F
100
AcDbEntity
  8
0
  6
Continuous
 62
     4
100
AcDbLine
 10
314.5
 20
676.7999999999999
 30
0.0
 11
344.5
 21
676.7999999999999
 31
0.0
  0
LINE
  5
904
330
1F
100
AcDbEntity
  8
0
  6
Continuous
 62
     4
100
AcDbLine
 10
329.5000347606475
 20
299.7000031068667
 30
0.0
 11
359.5592607606475
 21
299.7000031068667
 31
0.0
  0
LINE
  5
905
330
1F
100
AcDbEntity
  8
0
  6
Continuous
 62
     4
100
AcDbLine
 10
379.5000337606475
 20
360.3000031068668
 30
0.0
 11
329.5000347606475
 21
360.3000031068668
 31
0.0
  0
CIRCLE
  5
906
330
1F
100
AcDbEntity
  8
0
  6
Continuous
 62
     4
100
AcDbCircle
 10
354.5000337606473
 20
330.0000031068666
 30
0.0
 40
27.0
  0
LINE
  5
908
330
1F
100
AcDbEntity
  8
外形線
100
AcDbLine
 10
256.4999662392325
 20
726.7999999999998
 30
0.0
 11
344.5
 21
726.7999999999998
 31
0.0
  0
LWPOLYLINE
  5
909
330
1F
100
AcDbEntity
  8
外形線
100
AcDbPolyline
 90
        4
 70
     0
 43
0.0
 10
344.5
 20
730.0
 10
256.4999662392325
 20
730.0
 10
256.4999662392325
 20
750.0
 10
344.5
 20
750.0
  0
CIRCLE
  5
90A
330
1F
100
AcDbEntity
  8
外形線
100
AcDbCircle
 10
344.4999999998799
 20
330.00000000012
 30
0.0
 40
76.4
  0
CIRCLE
  5
90B
330
1F
100
AcDbEntity
  8
外形線
100
AcDbCircle
 10
344.4999999998799
 20
330.00000000012
 30
0.0
 40
78.0
  0
LWPOLYLINE
  5
90C
330
1F
100
AcDbEntity
  8
外形線
100
AcDbPolyline
 90
        4
 70
     0
 43
0.0
 10
301.2500003415292
 20
717.0000187875812
 10
301.2500003415292
 20
697.2999999999998
 10
283.7500003415292
 20
697.2999999999998
 10
283.7500003415292
 20
726.7999999999998
  0
LINE
  5
90D
330
1F
100
AcDbEntity
  8
0
  6
Continuous
 62
     4
100
AcDbLine
 10
314.5
 20
676.7999999999999
 30
0.0
 11
314.5
 21
726.2999999999998
 31
0.0
  0
LINE
  5
90E
330
1F
100
AcDbEntity
  8
0
  6
Continuous
 62
     4
100
AcDbLine
 10
315.0
 20
613.2999999999998
 30
0.0
 11
315.0
 21
618.7999999999998
 31
0.0
  0
LINE
  5
90F
330
1F
100
AcDbEntity
  8
0
  6
Continuous
 62
     4
100
AcDbLine
 10
316.5
 20
611.7999999999998
 30
0.0
 11
315.0
 21
613.2999999999998
 31
0.0
  0
LINE
  5
910
330
1F
100
AcDbEntity
  8
0
  6
Continuous
 62
     4
100
AcDbLine
 10
314.5
 20
618.7999999999998
 30
0.0
 11
314.5
 21
670.2999999999998
 31
0.0
  0
LINE
  5
911
330
1F
100
AcDbEntity
  8
0
  6
Continuous
 62
     4
100
AcDbLine
 10
315.7512619999999
 20
669.5999999999997
 30
0.0
 11
323.7512619999999
 21
669.5999999999997
 31
0.0
  0
LINE
  5
912
330
1F
100
AcDbEntity
  8
0
  6
Continuous
 62
     4
100
AcDbLine
 10
314.2
 20
670.2999999999998
 30
0.0
 11
314.2
 21
676.7999999999999
 31
0.0
  0
LINE
  5
913
330
1F
100
AcDbEntity
  8
0
  6
Continuous
 62
     4
100
AcDbLine
 10
315.7512619999999
 20
669.5999999999997
 30
0.0
 11
315.7512619999999
 21
670.2999999999998
 31
0.0
  0
LINE
  5
914
330
1F
100
AcDbEntity
  8
0
  6
Continuous
 62
     4
100
AcDbLine
 10
323.7512619999999
 20
669.5999999999997
 30
0.0
 11
323.7512619999999
 21
670.2999999999998
 31
0.0
  0
LINE
  5
915
330
1F
100
AcDbEntity
  8
隠線
100
AcDbLine
 10
258.0999662392325
 20
750.0
 30
0.0
 11
258.0999662392325
 21
730.0
 31
0.0
  0
LINE
  5
916
330
1F
100
AcDbEntity
  8
外形線
100
AcDbLine
 10
256.4999662392325
 20
730.0
 30
0.0
 11
256.4999662392325
 21
726.7999999999998
 31
0.0
  0
LINE
  5
917
330
1F
100
AcDbEntity
  8
外形線
100
AcDbLine
 10
298.7000609547079
 20
717.0000187875812
 30
0.0
 11
305.3000609547043
 21
717.0000187875812
 31
0.0
  0
LINE
  5
918
330
1F
100
AcDbEntity
  8
DEFPOINTS
100
AcDbLine
 10
298.0000268524094
 20
717.7000528898798
 30
0.0
 11
306.0000268524094
 21
717.7000528898798
 31
0.0
  0
INSERT
  5
919
330
1F
100
AcDbEntity
  8
外形線
100
AcDbBlockReference
  2
N12S08
 10
301.9999662392325
 20
726.7999999999998
 30
0.0
 50
90.0
  0
ARC
  5
91A
330
1F
100
AcDbEntity
  8
外形線
100
AcDbCircle
 10
292.5000003415292
 20
733.7
 30
0.0
 40
9.500000000000003
100
AcDbArc
 50
243.7617174556824
 51
288.4082414844397
  0
LINE
  5
91B
330
1F
100
AcDbEntity
  8
外形線
100
AcDbLine
 10
288.3000003415293
 20
725.2
 30
0.0
 11
295.4999627909567
 21
725.2
 31
0.0
  0
LINE
  5
91C
330
1F
100
AcDbEntity
  8
外形線
100
AcDbLine
 10
287.5000003415292
 20
726.0
 30
0.0
 11
295.4999627909567
 21
726.0
 31
0.0
  0
LINE
  5
91D
330
1F
100
AcDbEntity
  8
外形線
100
AcDbLine
 10
288.3000003415306
 20
726.0
 30
0.0
 11
288.3000003415306
 21
725.2
 31
0.0
  0
LINE
  5
91E
330
1F
100
AcDbEntity
  8
外形線
100
AcDbLine
 10
287.5000003415292
 20
726.7999999999998
 30
0.0
 11
287.5000003415292
 21
726.0
 31
0.0
  0
LINE
  5
91F
330
1F
100
AcDbEntity
  8
外形線
100
AcDbLine
 10
298.0000268524094
 20
717.7000528898798
 30
0.0
 11
298.7000609547079
 21
717.0000187875812
 31
0.0
  0
LINE
  5
920
330
1F
100
AcDbEntity
  8
外形線
100
AcDbLine
 10
298.0000268524094
 20
720.3000187875812
 30
0.0
 11
298.0000268524094
 21
717.7000528898798
 31
0.0
  0
LINE
  5
921
330
1F
100
AcDbEntity
  8
DEFPOINTS
100
AcDbLine
 10
298.7000609547079
 20
720.3000187875812
 30
0.0
 11
298.7000609547079
 21
717.0000187875812
 31
0.0
  0
LINE
  5
922
330
1F
100
AcDbEntity
  8
外形線
100
AcDbLine
 10
305.3000609547043
 20
717.0000187875812
 30
0.0
 11
306.0000268524094
 21
717.6999846852862
 31
0.0
  0
LINE
  5
923
330
1F
100
AcDbEntity
  8
外形線
100
AcDbLine
 10
306.0000268524094
 20
717.6999846852862
 30
0.0
 11
306.0000268524094
 21
720.3000187875812
 31
0.0
  0
LINE
  5
924
330
1F
100
AcDbEntity
  8
DEFPOINTS
100
AcDbLine
 10
305.3000609547043
 20
717.0000187875812
 30
0.0
 11
305.3000609547043
 21
720.3000187875812
 31
0.0
  0
ARC
  5
925
330
1F
100
AcDbEntity
  8
0
  6
Continuous
 62
     4
100
AcDbCircle
 10
315.0
 20
726.2999999999998
 30
0.0
 40
0.5
100
AcDbArc
 50
90.0
 51
180.0
  0
CIRCLE
  5
926
330
1F
100
AcDbEntity
  8
外形線
100
AcDbCircle
 10
279.4999999998799
 20
330.00000000012
 30
0.0
 40
4.5
  0
LWPOLYLINE
  5
927
330
1F
100
AcDbEntity
  8
外形線
100
AcDbPolyline
 90
        4
 70
     1
 43
0.0
 10
293.7500341021766
 20
346.75000000012
 10
311.2500341021767
 20
346.75000000012
 10
311.2500341021767
 20
313.25000000012
 10
293.7500341021766
 20
313.25000000012
  0
LINE
  5
928
330
1F
100
AcDbEntity
  8
0
  6
Continuous
 62
     4
100
AcDbLine
 10
324.2000347606476
 20
355.0000031068666
 30
0.0
 11
324.2000347606476
 21
305.0000031068666
 31
0.0
  0
CIRCLE
  5
929
330
1F
100
AcDbEntity
  8
隠線
100
AcDbCircle
 10
311.99999999988
 20
273.7083487541315
 30
0.0
 40
3.299999999999998
  0
INSERT
  5
92A
330
1F
100
AcDbEntity
  8
外形線
100
AcDbBlockReference
  2
HB08H
 10
311.99999999988
 20
273.7083487541315
 30
0.0
  0
CIRCLE
  5
92B
330
1F
100
AcDbEntity
  8
外形線
100
AcDbCircle
 10
311.99999999988
 20
273.7083487541315
 30
0.0
 40
4.5
  0
CIRCLE
  5
92C
330
1F
100
AcDbEntity
  8
外形細線
100
AcDbCircle
 10
311.2999999998799
 20
285.00000000012
 30
0.0
 40
1.5
  0
CIRCLE
  5
92D
330
1F
100
AcDbEntity
  8
外形線
100
AcDbCircle
 10
311.2999999998799
 20
285.00000000012
 30
0.0
 40
1.149999999999999
  0
ARC
  5
92E
330
1F
100
AcDbEntity
  8
外形線
100
AcDbCircle
 10
302.5000341021767
 20
306.00000000012
 30
0.0
 40
5.0
100
AcDbArc
 50
180.0
 51
0.0
  0
INSERT
  5
92F
330
1F
100
AcDbEntity
  8
0
100
AcDbBlockReference
  2
CRFN04
 10
302.5000341021767
 20
306.00000000012
 30
0.0
  0
CIRCLE
  5
930
330
1F
100
AcDbEntity
  8
外形細線
100
AcDbCircle
 10
291.1087951706005
 20
311.8762794417488
 30
0.0
 40
1.5
  0
CIRCLE
  5
931
330
1F
100
AcDbEntity
  8
外形線
100
AcDbCircle
 10
291.1087951706005
 20
311.8762794417488
 30
0.0
 40
1.149999999999999
  0
LINE
  5
932
330
1F
100
AcDbEntity
  8
外形線
100
AcDbLine
 10
297.5000341021766
 20
313.25000000012
 30
0.0
 11
297.5000341021766
 21
306.00000000012
 31
0.0
  0
LINE
  5
933
330
1F
100
AcDbEntity
  8
外形線
100
AcDbLine
 10
307.5000341021767
 20
313.25000000012
 30
0.0
 11
307.5000341021767
 21
306.00000000012
 31
0.0
  0
ARC
  5
934
330
1F
100
AcDbEntity
  8
0
  6
Continuous
 62
     4
100
AcDbCircle
 10
329.5000347606475
 20
305.0000031068666
 30
0.0
 40
5.299999999999998
100
AcDbArc
 50
180.0
 51
270.0
  0
CIRCLE
  5
935
330
1F
100
AcDbEntity
  8
外形細線
100
AcDbCircle
 10
333.49999999988
 20
274.7000000001201
 30
0.0
 40
1.5
  0
CIRCLE
  5
936
330
1F
100
AcDbEntity
  8
外形線
100
AcDbCircle
 10
333.49999999988
 20
274.7000000001201
 30
0.0
 40
1.149999999999999
  0
INSERT
  5
937
330
1F
100
AcDbEntity
  8
0
100
AcDbBlockReference
  2
CRFN04
 10
329.7512967606475
 20
305.2512661068666
 30
0.0
  0
CIRCLE
  5
938
330
1F
100
AcDbEntity
  8
隠線
100
AcDbCircle
 10
311.99999999988
 20
386.2916512461085
 30
0.0
 40
3.299999999999998
  0
CIRCLE
  5
939
330
1F
100
AcDbEntity
  8
外形線
100
AcDbCircle
 10
311.99999999988
 20
386.2916512461085
 30
0.0
 40
4.5
  0
INSERT
  5
93A
330
1F
100
AcDbEntity
  8
外形線
100
AcDbBlockReference
  2
HB08H
 10
311.99999999988
 20
386.2916512461085
 30
0.0
  0
CIRCLE
  5
93B
330
1F
100
AcDbEntity
  8
外形線
100
AcDbCircle
 10
302.1087951706005
 20
367.1762794417488
 30
0.0
 40
1.149999999999999
  0
CIRCLE
  5
93C
330
1F
100
AcDbEntity
  8
外形細線
100
AcDbCircle
 10
302.1087951706005
 20
367.1762794417488
 30
0.0
 40
1.5
  0
ARC
  5
93D
330
1F
100
AcDbEntity
  8
外形線
100
AcDbCircle
 10
302.5000341021767
 20
354.00000000012
 30
0.0
 40
5.0
100
AcDbArc
 50
0.0
 51
180.0
  0
INSERT
  5
93E
330
1F
100
AcDbEntity
  8
0
100
AcDbBlockReference
  2
CRFN04
 10
302.5000341021767
 20
354.00000000012
 30
0.0
  0
LINE
  5
93F
330
1F
100
AcDbEntity
  8
外形線
100
AcDbLine
 10
297.5000341021766
 20
354.00000000012
 30
0.0
 11
297.5000341021766
 21
346.75000000012
 31
0.0
  0
CIRCLE
  5
940
330
1F
100
AcDbEntity
  8
外形線
100
AcDbCircle
 10
288.9288568295802
 20
336.2520434057635
 30
0.0
 40
1.149999999999999
  0
CIRCLE
  5
941
330
1F
100
AcDbEntity
  8
外形細線
100
AcDbCircle
 10
288.9288568295802
 20
336.2520434057635
 30
0.0
 40
1.5
  0
LINE
  5
942
330
1F
100
AcDbEntity
  8
外形線
100
AcDbLine
 10
307.5000341021767
 20
354.00000000012
 30
0.0
 11
307.5000341021767
 21
346.75000000012
 31
0.0
  0
INSERT
  5
943
330
1F
100
AcDbEntity
  8
0
100
AcDbBlockReference
  2
CRFN04
 10
329.7512967606475
 20
354.7487407899247
 30
0.0
  0
ARC
  5
944
330
1F
100
AcDbEntity
  8
0
  6
Continuous
 62
     4
100
AcDbCircle
 10
329.5000347606475
 20
355.0000031068666
 30
0.0
 40
5.299999999999998
100
AcDbArc
 50
90.0
 51
180.0
  0
CIRCLE
  5
945
330
1F
100
AcDbEntity
  8
外形線
100
AcDbCircle
 10
322.1288568295802
 20
381.2520434057633
 30
0.0
 40
1.149999999999999
  0
CIRCLE
  5
946
330
1F
100
AcDbEntity
  8
外形細線
100
AcDbCircle
 10
322.1288568295802
 20
381.2520434057633
 30
0.0
 40
1.5
  0
LINE
  5
94A
330
1F
100
AcDbEntity
  8
0
  6
Continuous
 62
     4
100
AcDbLine
 10
374.0
 20
613.2999999999998
 30
0.0
 11
374.0
 21
618.7999999999998
 31
0.0
  0
LINE
  5
94B
330
1F
100
AcDbEntity
  8
0
  6
Continuous
 62
     4
100
AcDbLine
 10
374.0
 20
613.2999999999998
 30
0.0
 11
372.5
 21
611.7999999999998
 31
0.0
  0
LINE
  5
94C
330
1F
100
AcDbEntity
  8
0
  6
Continuous
 62
     4
100
AcDbLine
 10
374.5
 20
618.7999999999998
 30
0.0
 11
374.5
 21
670.2999999999999
 31
0.0
  0
LINE
  5
95A
330
1F
100
AcDbEntity
  8
隠線
100
AcDbLine
 10
410.8999662392324
 20
740.0
 30
0.0
 11
410.8999662392324
 21
730.0
 31
0.0
  0
LINE
  5
95C
330
1F
100
AcDbEntity
  8
0
  6
Continuous
 62
     4
100
AcDbLine
 10
384.8000337606476
 20
355.0000031068666
 30
0.0
 11
384.8000337606476
 21
305.0000031068666
 31
0.0
  0
LINE
  5
95D
330
1F
100
AcDbEntity
  8
0
  6
Continuous
 62
     4
100
AcDbLine
 10
359.5592607606475
 20
299.7000031068667
 30
0.0
 11
379.5000337606475
 21
299.7000031068667
 31
0.0
  0
CIRCLE
  5
95E
330
1F
100
AcDbEntity
  8
外形線
100
AcDbCircle
 10
366.8711431701797
 20
278.7479565944767
 30
0.0
 40
1.149999999999999
  0
CIRCLE
  5
95F
330
1F
100
AcDbEntity
  8
外形細線
100
AcDbCircle
 10
366.8711431701797
 20
278.7479565944767
 30
0.0
 40
1.5
  0
ARC
  5
960
330
1F
100
AcDbEntity
  8
0
  6
Continuous
 62
     4
100
AcDbCircle
 10
379.5000337606473
 20
305.0000031068666
 30
0.0
 40
5.299999999999998
100
AcDbArc
 50
270.0
 51
0.0
  0
CIRCLE
  5
961
330
1F
100
AcDbEntity
  8
外形線
100
AcDbCircle
 10
376.99999999988
 20
273.7083487541315
 30
0.0
 40
4.5
  0
CIRCLE
  5
962
330
1F
100
AcDbEntity
  8
外形線
100
AcDbCircle
 10
386.8912048291594
 20
292.8237205584912
 30
0.0
 40
1.149999999999999
  0
CIRCLE
  5
963
330
1F
100
AcDbEntity
  8
外形細線
100
AcDbCircle
 10
386.8912048291594
 20
292.8237205584912
 30
0.0
 40
1.5
  0
INSERT
  5
964
330
1F
100
AcDbEntity
  8
0
100
AcDbBlockReference
  2
CRFN04
 10
379.2487714437059
 20
305.2512661068666
 30
0.0
  0
CIRCLE
  5
965
330
1F
100
AcDbEntity
  8
外形線
100
AcDbCircle
 10
355.49999999988
 20
385.3000000001202
 30
0.0
 40
1.149999999999999
  0
CIRCLE
  5
966
330
1F
100
AcDbEntity
  8
外形細線
100
AcDbCircle
 10
355.49999999988
 20
385.3000000001202
 30
0.0
 40
1.5
  0
INSERT
  5
967
330
1F
100
AcDbEntity
  8
0
100
AcDbBlockReference
  2
CRFN04
 10
379.2487714437059
 20
354.7487407899247
 30
0.0
  0
ARC
  5
968
330
1F
100
AcDbEntity
  8
0
  6
Continuous
 62
     4
100
AcDbCircle
 10
379.5000337606473
 20
355.0000031068666
 30
0.0
 40
5.299999999999998
100
AcDbArc
 50
0.0
 51
90.0
  0
CIRCLE
  5
969
330
1F
100
AcDbEntity
  8
外形線
100
AcDbCircle
 10
376.99999999988
 20
386.2916512461085
 30
0.0
 40
4.5
  0
CIRCLE
  5
96A
330
1F
100
AcDbEntity
  8
外形線
100
AcDbCircle
 10
377.69999999988
 20
375.00000000012
 30
0.0
 40
1.149999999999999
  0
CIRCLE
  5
96B
330
1F
100
AcDbEntity
  8
外形細線
100
AcDbCircle
 10
377.69999999988
 20
375.00000000012
 30
0.0
 40
1.5
  0
INSERT
  5
96C
330
1F
100
AcDbEntity
  8
外形線
100
AcDbBlockReference
  2
HB08H
 10
409.4999999998798
 20
330.00000000012
 30
0.0
  0
CIRCLE
  5
96D
330
1F
100
AcDbEntity
  8
外形線
100
AcDbCircle
 10
409.4999999998798
 20
330.00000000012
 30
0.0
 40
4.5
  0
CIRCLE
  5
96E
330
1F
100
AcDbEntity
  8
隠線
100
AcDbCircle
 10
409.5000187874613
 20
330.0000034483959
 30
0.0
 40
3.299999999999998
  0
CIRCLE
  5
96F
330
1F
100
AcDbEntity
  8
外形線
100
AcDbCircle
 10
400.0711431701798
 20
323.7479565944768
 30
0.0
 40
1.149999999999999
  0
CIRCLE
  5
970
330
1F
100
AcDbEntity
  8
外形細線
100
AcDbCircle
 10
400.0711431701798
 20
323.7479565944768
 30
0.0
 40
1.5
  0
CIRCLE
  5
971
330
1F
100
AcDbEntity
  8
外形線
100
AcDbCircle
 10
397.8912048291594
 20
348.1237205584911
 30
0.0
 40
1.149999999999999
  0
CIRCLE
  5
972
330
1F
100
AcDbEntity
  8
外形細線
100
AcDbCircle
 10
397.8912048291594
 20
348.1237205584911
 30
0.0
 40
1.5
  0
LINE
  5
97A
330
1F
100
AcDbEntity
  8
隠線
100
AcDbLine
 10
278.8999999999999
 20
726.7999999999998
 30
0.0
 11
278.8999999999999
 21
750.0
 31
0.0
  0
LINE
  5
97B
330
1F
100
AcDbEntity
  8
隠線
100
AcDbLine
 10
280.8999999999999
 20
726.7999999999998
 30
0.0
 11
280.8999999999999
 21
750.0
 31
0.0
  0
LINE
  5
97F
330
1F
100
AcDbEntity
  8
隠線
100
AcDbLine
 10
374.5
 20
690.0000000000001
 30
0.0
 11
374.5
 21
726.7999999999998
 31
0.0
  0
LINE
  5
984
330
1F
100
AcDbEntity
  8
隠線
100
AcDbLine
 10
344.5
 20
730.0
 30
0.0
 11
412.4999662392324
 21
730.0
 31
0.0
  0
LINE
  5
985
330
1F
100
AcDbEntity
  8
隠線
100
AcDbLine
 10
412.4999662392324
 20
730.0
 30
0.0
 11
412.4999662392324
 21
726.7999999999998
 31
0.0
  0
LINE
  5
986
330
1F
100
AcDbEntity
  8
隠線
100
AcDbLine
 10
412.4999662392324
 20
726.7999999999998
 30
0.0
 11
344.5
 21
726.7999999999998
 31
0.0
  0
LINE
  5
987
330
1F
100
AcDbEntity
  8
隠線
100
AcDbLine
 10
412.4999662392324
 20
730.0
 30
0.0
 11
412.4999662392324
 21
740.0
 31
0.0
  0
INSERT
  5
988
330
1F
100
AcDbEntity
  8
隠線
100
AcDbBlockReference
  2
N12S08
 10
399.499981578538
 20
726.7999999999998
 30
0.0
 50
90.0
  0
LINE
  5
989
330
1F
100
AcDbEntity
  8
隠線
100
AcDbLine
 10
395.499981578538
 20
720.3000187875812
 30
0.0
 11
395.499981578538
 21
717.7000528898798
 31
0.0
  0
LINE
  5
98A
330
1F
100
AcDbEntity
  8
隠線
100
AcDbLine
 10
395.499981578538
 20
717.7000528898798
 30
0.0
 11
396.2000156808366
 21
717.0000187875812
 31
0.0
  0
LINE
  5
98B
330
1F
100
AcDbEntity
  8
隠線
100
AcDbLine
 10
396.2000156808366
 20
717.0000187875812
 30
0.0
 11
402.800015680833
 21
717.0000187875812
 31
0.0
  0
LINE
  5
98C
330
1F
100
AcDbEntity
  8
隠線
100
AcDbLine
 10
402.800015680833
 20
717.0000187875812
 30
0.0
 11
403.4999815785379
 21
717.7000528898798
 31
0.0
  0
LINE
  5
98D
330
1F
100
AcDbEntity
  8
隠線
100
AcDbLine
 10
403.4999815785379
 20
717.7000528898798
 30
0.0
 11
403.4999815785379
 21
720.3000187875812
 31
0.0
  0
LINE
  5
9C7
330
1F
100
AcDbEntity
  8
外形細線
100
AcDbLine
 10
174.9357938716932
 20
165.10269862707
 30
0.0
 11
156.9481457652457
 21
147.1150505206225
 31
0.0
  0
LINE
  5
9C8
330
1F
100
AcDbEntity
  8
外形線
100
AcDbLine
 10
174.4408191248408
 20
165.5976733739223
 30
0.0
 11
157.3104924284051
 21
148.4673466774867
 31
0.0
  0
LINE
  5
9C9
330
1F
100
AcDbEntity
  8
外形細線
100
AcDbLine
 10
161.6150505208278
 20
142.4481457650404
 30
0.0
 11
179.6026986272753
 21
160.4357938714878
 31
0.0
  0
LINE
  5
9CA
330
1F
100
AcDbEntity
  8
外形線
100
AcDbLine
 10
162.967346677692
 20
142.8104924281999
 30
0.0
 11
180.0976733741275
 21
159.9408191246354
 31
0.0
  0
LINE
  5
9CC
330
1F
100
AcDbEntity
  8
外形線
100
AcDbLine
 10
119.0000004391659
 20
775.0000002525894
 30
0.0
 11
119.0000004391659
 21
758.0000002525894
 31
0.0
  0
LINE
  5
9D2
330
1F
100
AcDbEntity
  8
外形細線
100
AcDbLine
 10
157.3104924284051
 20
148.4673466774867
 30
0.0
 11
162.967346677692
 21
142.8104924281999
 31
0.0
  0
LINE
  5
9D3
330
1F
100
AcDbEntity
  8
外形線
100
AcDbLine
 10
156.9481457652457
 20
147.1150505206225
 30
0.0
 11
161.6150505208278
 21
142.4481457650404
 31
0.0
  0
LINE
  5
9D4
330
1F
100
AcDbEntity
  8
外形線
100
AcDbLine
 10
161.6150505208278
 20
142.4481457650404
 30
0.0
 11
162.967346677692
 21
142.8104924281999
 31
0.0
  0
LINE
  5
9D5
330
1F
100
AcDbEntity
  8
外形線
100
AcDbLine
 10
157.3104924284051
 20
148.4673466774867
 30
0.0
 11
156.9481457652457
 21
147.1150505206225
 31
0.0
  0
LINE
  5
A0B
330
1F
100
AcDbEntity
  8
外形線
100
AcDbLine
 10
277.0
 20
1065.0
 30
0.0
 11
412.0
 21
1065.0
 31
0.0
  0
LWPOLYLINE
  5
A0C
330
1F
100
AcDbEntity
  8
外形線
100
AcDbPolyline
 90
        4
 70
     0
 43
0.0
 10
344.4999999998799
 20
1035.0
 10
254.5
 20
1035.0
 10
254.5
 20
1038.2
 10
344.4999999998799
 20
1038.2
  0
LINE
  5
A10
330
1F
100
AcDbEntity
  8
隠線
100
AcDbLine
 10
277.0
 20
1038.2
 30
0.0
 11
277.0
 21
1035.0
 31
0.0
  0
LINE
  5
A11
330
1F
100
AcDbEntity
  8
外形線
100
AcDbLine
 10
277.0
 20
1025.0
 30
0.0
 11
277.0
 21
1035.0
 31
0.0
  0
LINE
  5
A12
330
1F
100
AcDbEntity
  8
外形線
100
AcDbLine
 10
277.0
 20
1038.2
 30
0.0
 11
277.0
 21
1065.0
 31
0.0
  0
LINE
  5
A1B
330
1F
100
AcDbEntity
  8
外形線
100
AcDbLine
 10
412.0
 20
1065.0
 30
0.0
 11
412.0
 21
1041.0
 31
0.0
  0
LINE
  5
A35
330
1F
100
AcDbEntity
  8
外形線
100
AcDbLine
 10
254.4999999999999
 20
1035.0
 30
0.0
 11
344.4999999998799
 21
1035.0
 31
0.0
  0
CIRCLE
  5
A51
330
1F
100
AcDbEntity
  8
外形線
100
AcDbCircle
 10
344.4999999998799
 20
330.00000000012
 30
0.0
 40
230.0
  0
CIRCLE
  5
A59
330
1F
100
AcDbEntity
  8
外形線
100
AcDbCircle
 10
344.4999999998799
 20
330.00000000012
 30
0.0
 40
225.4999999999999
  0
LINE
  5
A68
330
1F
100
AcDbEntity
  8
隠線
100
AcDbLine
 10
181.8971927397274
 20
486.2388462295951
 30
0.0
 11
178.7145908614029
 21
489.4214481079193
 31
0.0
  0
LINE
  5
A86
330
1F
100
AcDbEntity
  8
外形線
100
AcDbLine
 10
344.4999999998799
 20
775.0
 30
0.0
 11
307.0
 21
775.0
 31
0.0
  0
LINE
  5
A87
330
1F
100
AcDbEntity
  8
外形線
100
AcDbLine
 10
254.9999999998799
 20
1041.0
 30
0.0
 11
434.9999999998798
 21
1041.0
 31
0.0
  0
CIRCLE
  5
A88
330
1F
100
AcDbEntity
  8
外形線
100
AcDbCircle
 10
142.28317328983
 20
836.5829537139138
 30
0.0
 40
3.0
  0
LINE
  5
A89
330
1F
100
AcDbEntity
  8
外形線
100
AcDbLine
 10
254.9999999998799
 20
1041.0
 30
0.0
 11
119.9999999998799
 21
775.0
 31
0.0
  0
LINE
  5
A8A
330
1F
100
AcDbEntity
  8
外形線
100
AcDbLine
 10
235.6411560883319
 20
1036.0
 30
0.0
 11
113.4126018481193
 21
795.1644783118775
 31
0.0
  0
LINE
  5
A8B
330
1F
100
AcDbEntity
  8
外形線
100
AcDbLine
 10
119.9999999998799
 20
775.0
 30
0.0
 11
254.9999999998799
 21
1041.0
 31
0.0
  0
LINE
  5
A8C
330
1F
100
AcDbEntity
  8
外形線
100
AcDbLine
 10
113.4126018481193
 20
795.1644783118775
 30
0.0
 11
126.7885400799384
 21
788.3759382318189
 31
0.0
  0
LINE
  5
A8D
330
1F
100
AcDbEntity
  8
外形線
100
AcDbLine
 10
254.9999999998799
 20
1041.0
 30
0.0
 11
235.6411560883319
 21
1036.0
 31
0.0
  0
CIRCLE
  5
A8E
330
1F
100
AcDbEntity
  8
外形線
100
AcDbCircle
 10
232.797041023944
 20
1014.928796804834
 30
0.0
 40
3.0
  0
LINE
  5
A8F
330
1F
100
AcDbEntity
  8
外形線
100
AcDbLine
 10
454.3588439114278
 20
1036.0
 30
0.0
 11
576.5873981516405
 21
795.1644783118775
 31
0.0
  0
LINE
  5
A90
330
1F
100
AcDbEntity
  8
外形線
100
AcDbLine
 10
434.9999999998798
 20
1041.0
 30
0.0
 11
562.3872180449928
 21
790.0
 31
0.0
  0
LINE
  5
A91
330
1F
100
AcDbEntity
  8
外形線
100
AcDbLine
 10
434.9999999998798
 20
1041.0
 30
0.0
 11
454.3588439114278
 21
1036.0
 31
0.0
  0
LINE
  5
A94
330
1F
100
AcDbEntity
  8
外形線
100
AcDbLine
 10
576.5873981516405
 20
795.1644783118775
 30
0.0
 11
566.4114631074965
 21
790.0
 31
0.0
  0
INSERT
  5
AC5
330
1F
100
AcDbEntity
  8
外形線
100
AcDbBlockReference
  2
CRFN04
 10
457.2029589758158
 20
1014.928796804834
 30
0.0
  0
INSERT
  5
AC6
330
1F
100
AcDbEntity
  8
外形線
100
AcDbBlockReference
  2
CRFN04
 10
547.7168267099298
 20
836.5829537139138
 30
0.0
  0
LINE
  5
AE3
330
1F
100
AcDbEntity
  8
外形線
100
AcDbLine
 10
310.4999999998799
 20
769.0
 30
0.0
 11
307.0
 21
769.0
 31
0.0
  0
LINE
  5
AE4
330
1F
100
AcDbEntity
  8
外形線
100
AcDbLine
 10
256.4999999998799
 20
771.3
 30
0.0
 11
282.0
 21
771.3
 31
0.0
  0
LINE
  5
AE5
330
1F
100
AcDbEntity
  8
外形線
100
AcDbLine
 10
416.4999999998798
 20
995.0
 30
0.0
 11
259.343670885956
 21
771.3000000000001
 31
0.0
  0
LWPOLYLINE
  5
AE6
330
1F
100
AcDbEntity
  8
外形線
100
AcDbPolyline
 90
        4
 70
     1
 43
0.0
 10
416.4999999998798
 20
1025.0
 10
272.4999999998799
 20
1025.0
 10
272.4999999998799
 20
995.0
 10
416.4999999998798
 20
995.0
  0
LINE
  5
AE7
330
1F
100
AcDbEntity
  8
外形線
100
AcDbLine
 10
310.4999999998799
 20
771.3
 30
0.0
 11
310.4999999998799
 21
769.0
 31
0.0
  0
LINE
  5
AE9
330
1F
100
AcDbEntity
  8
外形線
100
AcDbLine
 10
138.597046413382
 20
764.2
 30
0.0
 11
272.4999999998799
 21
995.0
 31
0.0
  0
LINE
  5
AEB
330
1F
100
AcDbEntity
  8
外形線
100
AcDbLine
 10
257.7278481011457
 20
769.0
 30
0.0
 11
254.3556962024116
 21
764.2
 31
0.0
  0
LINE
  5
AED
330
1F
100
AcDbEntity
  8
センタ_線
100
AcDbLine
 10
344.4999999998799
 20
1075.0
 30
0.0
 11
344.4999999998799
 21
625.8
 31
0.0
  0
LWPOLYLINE
  5
B1C
330
1F
100
AcDbEntity
  8
外形線
100
AcDbPolyline
 90
        4
 70
     0
 43
0.0
 10
344.5
 20
753.2
 10
124.5
 20
753.2
 10
124.5
 20
754.2
 10
344.5
 20
754.2
  0
LINE
  5
B1D
330
1F
100
AcDbEntity
  8
外形線
100
AcDbLine
 10
255.5
 20
764.2
 30
0.0
 11
133.4999999999999
 21
764.2
 31
0.0
  0
LINE
  5
B1E
330
1F
100
AcDbEntity
  8
外形線
100
AcDbLine
 10
344.5
 20
755.7999999999998
 30
0.0
 11
324.5
 21
755.7999999999998
 31
0.0
  0
LINE
  5
B20
330
1F
100
AcDbEntity
  8
外形線
100
AcDbLine
 10
324.5
 20
755.7999999999998
 30
0.0
 11
324.5
 21
754.2
 31
0.0
  0
LINE
  5
B21
330
1F
100
AcDbEntity
  8
外形線
100
AcDbLine
 10
307.0
 20
779.2
 30
0.0
 11
282.0
 21
779.2
 31
0.0
  0
LINE
  5
B22
330
1F
100
AcDbEntity
  8
外形線
100
AcDbLine
 10
307.0
 20
755.2
 30
0.0
 11
282.0
 21
755.2
 31
0.0
  0
LINE
  5
B26
330
1F
100
AcDbEntity
  8
外形線
100
AcDbLine
 10
307.0
 20
755.2
 30
0.0
 11
307.0
 21
779.2
 31
0.0
  0
LINE
  5
B27
330
1F
100
AcDbEntity
  8
外形線
100
AcDbLine
 10
307.0
 20
754.2
 30
0.0
 11
307.0
 21
755.2
 31
0.0
  0
LINE
  5
B28
330
1F
100
AcDbEntity
  8
隠線
100
AcDbLine
 10
307.0000010732296
 20
754.1999999130267
 30
0.0
 11
307.0000010732296
 21
753.1999999130265
 31
0.0
  0
LINE
  5
B2A
330
1F
100
AcDbEntity
  8
外形線
100
AcDbLine
 10
282.0
 20
779.2
 30
0.0
 11
282.0
 21
755.2
 31
0.0
  0
LINE
  5
B2B
330
1F
100
AcDbEntity
  8
外形線
100
AcDbLine
 10
282.0
 20
755.2
 30
0.0
 11
282.0
 21
754.2
 31
0.0
  0
LINE
  5
B2C
330
1F
100
AcDbEntity
  8
隠線
100
AcDbLine
 10
282.0000010732296
 20
754.1999999130267
 30
0.0
 11
282.0000010732296
 21
753.1999999130265
 31
0.0
  0
LINE
  5
B2D
330
1F
100
AcDbEntity
  8
隠線
100
AcDbLine
 10
254.4999999999999
 20
764.2
 30
0.0
 11
254.4999999999999
 21
753.2
 31
0.0
  0
LINE
  5
B2E
330
1F
100
AcDbEntity
  8
外形線
100
AcDbLine
 10
255.5
 20
754.2
 30
0.0
 11
255.5
 21
764.2
 31
0.0
  0
LINE
  5
B2F
330
1F
100
AcDbEntity
  8
隠線
100
AcDbLine
 10
134.4999999999999
 20
764.2
 30
0.0
 11
134.4999999999999
 21
753.2
 31
0.0
  0
LINE
  5
B30
330
1F
100
AcDbEntity
  8
外形線
100
AcDbLine
 10
133.4999999999999
 20
764.2
 30
0.0
 11
133.4999999999999
 21
754.2
 31
0.0
  0
LINE
  5
B35
330
1F
100
AcDbEntity
  8
隠線
100
AcDbLine
 10
277.0
 20
1025.0
 30
0.0
 11
277.0
 21
1005.0
 31
0.0
  0
LINE
  5
B36
330
1F
100
AcDbEntity
  8
隠線
100
AcDbLine
 10
277.0
 20
1005.0
 30
0.0
 11
344.4999999998799
 21
1005.0
 31
0.0
  0
LINE
  5
B37
330
1F
100
AcDbEntity
  8
外形線
100
AcDbLine
 10
144.8628691981921
 20
775.0
 30
0.0
 11
119.9999999998799
 21
775.0
 31
0.0
  0
LINE
  5
B38
330
1F
100
AcDbEntity
  8
外形線
100
AcDbLine
 10
282.0
 20
775.0
 30
0.0
 11
261.9430379745634
 21
775.0
 31
0.0
  0
LINE
  5
B39
330
1F
100
AcDbEntity
  8
外形線
100
AcDbLine
 10
307.0
 20
771.3
 30
0.0
 11
310.4999999998799
 21
771.3
 31
0.0
  0
LINE
  5
B3A
330
1F
100
AcDbEntity
  8
外形線
100
AcDbLine
 10
282.0
 20
769.0
 30
0.0
 11
256.4999999998799
 21
769.0
 31
0.0
  0
LINE
  5
B3B
330
1F
100
AcDbEntity
  8
隠線
100
AcDbLine
 10
138.597046413382
 20
764.2
 30
0.0
 11
134.9999999998799
 21
758.0
 31
0.0
  0
LINE
  5
B3C
330
1F
100
AcDbEntity
  8
隠線
100
AcDbLine
 10
134.9999999998799
 20
758.0
 30
0.0
 11
249.9999999998799
 21
758.0
 31
0.0
  0
LINE
  5
B3D
330
1F
100
AcDbEntity
  8
隠線
100
AcDbLine
 10
249.9999999998799
 20
758.0
 30
0.0
 11
254.3556962024116
 21
764.2
 31
0.0
  0
LINE
  5
B6C
330
1F
100
AcDbEntity
  8
隠線
100
AcDbLine
 10
185.4321052826746
 20
496.1389625291908
 30
0.0
 11
188.6147071609985
 21
492.9563606508668
 31
0.0
  0
INSERT
  5
B6E
330
1F
100
AcDbEntity
  8
外形線
100
AcDbBlockReference
  2
N12S08
 10
181.8654294807944
 20
167.3654246037415
 30
0.0
 50
45.0
  0
INSERT
  5
B71
330
1F
100
AcDbEntity
  8
外形線
100
AcDbBlockReference
  2
N12S08
 10
507.1345753962583
 20
167.3654294810344
 30
0.0
 50
135.0
  0
LINE
  5
B72
330
1F
100
AcDbEntity
  8
外形細線
100
AcDbLine
 10
509.3973013729298
 20
160.4357938719333
 30
0.0
 11
527.3849494793775
 21
142.4481457654858
 31
0.0
  0
LINE
  5
B73
330
1F
100
AcDbEntity
  8
外形線
100
AcDbLine
 10
508.9023266260776
 20
159.9408191250809
 30
0.0
 11
526.0326533225131
 21
142.8104924286453
 31
0.0
  0
LINE
  5
B74
330
1F
100
AcDbEntity
  8
外形細線
100
AcDbLine
 10
532.0518542349596
 20
147.1150505210678
 30
0.0
 11
514.064206128512
 21
165.1026986275153
 31
0.0
  0
LINE
  5
B75
330
1F
100
AcDbEntity
  8
外形線
100
AcDbLine
 10
531.6895075718
 20
148.467346677932
 30
0.0
 11
514.5591808753644
 21
165.5976733743676
 31
0.0
  0
LINE
  5
B76
330
1F
100
AcDbEntity
  8
外形細線
100
AcDbLine
 10
526.0326533225131
 20
142.8104924286453
 30
0.0
 11
531.6895075718
 21
148.467346677932
 31
0.0
  0
LINE
  5
B77
330
1F
100
AcDbEntity
  8
外形線
100
AcDbLine
 10
526.0326533225131
 20
142.8104924286453
 30
0.0
 11
527.3849494793775
 21
142.4481457654858
 31
0.0
  0
LINE
  5
B78
330
1F
100
AcDbEntity
  8
外形線
100
AcDbLine
 10
527.3849494793775
 20
142.4481457654858
 30
0.0
 11
532.0518542349596
 21
147.1150505210678
 31
0.0
  0
LINE
  5
B79
330
1F
100
AcDbEntity
  8
外形線
100
AcDbLine
 10
532.0518542349596
 20
147.1150505210678
 30
0.0
 11
531.6895075718
 21
148.467346677932
 31
0.0
  0
INSERT
  5
B7A
330
1F
100
AcDbEntity
  8
外形線
100
AcDbBlockReference
  2
N12S08
 10
507.1345705189655
 20
492.6345753964987
 30
0.0
 50
224.9999999999999
  0
LINE
  5
B7B
330
1F
100
AcDbEntity
  8
外形細線
100
AcDbLine
 10
514.0642061280669
 20
494.89730137317
 30
0.0
 11
532.0518542345142
 21
512.8849494796177
 31
0.0
  0
LINE
  5
B7C
330
1F
100
AcDbEntity
  8
外形線
100
AcDbLine
 10
514.5591808749193
 20
494.402326626318
 30
0.0
 11
531.6895075713548
 21
511.5326533227535
 31
0.0
  0
LINE
  5
B7D
330
1F
100
AcDbEntity
  8
外形細線
100
AcDbLine
 10
527.384949478932
 20
517.5518542351997
 30
0.0
 11
509.3973013724848
 21
499.5642061287523
 31
0.0
  0
LINE
  5
B7E
330
1F
100
AcDbEntity
  8
外形線
100
AcDbLine
 10
526.032653322068
 20
517.1895075720404
 30
0.0
 11
508.9023266256323
 21
500.0591808756047
 31
0.0
  0
LINE
  5
B7F
330
1F
100
AcDbEntity
  8
外形細線
100
AcDbLine
 10
531.6895075713548
 20
511.5326533227535
 30
0.0
 11
526.032653322068
 21
517.1895075720404
 31
0.0
  0
LINE
  5
B80
330
1F
100
AcDbEntity
  8
外形線
100
AcDbLine
 10
531.6895075713548
 20
511.5326533227535
 30
0.0
 11
532.0518542345142
 21
512.8849494796177
 31
0.0
  0
LINE
  5
B81
330
1F
100
AcDbEntity
  8
外形線
100
AcDbLine
 10
532.0518542345142
 20
512.8849494796177
 30
0.0
 11
527.384949478932
 21
517.5518542351997
 31
0.0
  0
LINE
  5
B82
330
1F
100
AcDbEntity
  8
外形線
100
AcDbLine
 10
527.384949478932
 20
517.5518542351997
 30
0.0
 11
526.032653322068
 21
517.1895075720404
 31
0.0
  0
INSERT
  5
B83
330
1F
100
AcDbEntity
  8
外形線
100
AcDbBlockReference
  2
N12S08
 10
181.8654246035016
 20
492.6345705192057
 30
0.0
 50
314.9999999999999
  0
LINE
  5
B84
330
1F
100
AcDbEntity
  8
外形細線
100
AcDbLine
 10
179.6026986268301
 20
499.564206128307
 30
0.0
 11
161.6150505203826
 21
517.5518542347544
 31
0.0
  0
LINE
  5
B85
330
1F
100
AcDbEntity
  8
外形線
100
AcDbLine
 10
180.0976733736824
 20
500.0591808751593
 30
0.0
 11
162.9673466772469
 21
517.189507571595
 31
0.0
  0
LINE
  5
B86
330
1F
100
AcDbEntity
  8
外形細線
100
AcDbLine
 10
156.9481457648005
 20
512.8849494791722
 30
0.0
 11
174.9357938712479
 21
494.8973013727247
 31
0.0
  0
LINE
  5
B87
330
1F
100
AcDbEntity
  8
外形線
100
AcDbLine
 10
157.31049242796
 20
511.5326533223081
 30
0.0
 11
174.4408191243955
 21
494.4023266258724
 31
0.0
  0
LINE
  5
B88
330
1F
100
AcDbEntity
  8
外形細線
100
AcDbLine
 10
162.9673466772469
 20
517.189507571595
 30
0.0
 11
157.31049242796
 21
511.5326533223081
 31
0.0
  0
LINE
  5
B89
330
1F
100
AcDbEntity
  8
外形線
100
AcDbLine
 10
162.9673466772469
 20
517.189507571595
 30
0.0
 11
161.6150505203826
 21
517.5518542347544
 31
0.0
  0
LINE
  5
B8A
330
1F
100
AcDbEntity
  8
外形線
100
AcDbLine
 10
161.6150505203826
 20
517.5518542347544
 30
0.0
 11
156.9481457648005
 21
512.8849494791722
 31
0.0
  0
LINE
  5
B8B
330
1F
100
AcDbEntity
  8
外形線
100
AcDbLine
 10
156.9481457648005
 20
512.8849494791722
 30
0.0
 11
157.31049242796
 21
511.5326533223081
 31
0.0
  0
LINE
  5
BB9
330
1F
100
AcDbEntity
  8
外形線
100
AcDbLine
 10
623.8416144040883
 20
267.5000000001799
 30
0.0
 11
623.8416144040883
 21
392.5000000001799
 31
0.0
  0
LINE
  5
BBA
330
1F
100
AcDbEntity
  8
外形線
100
AcDbLine
 10
624.8416144040882
 20
393.5000000001799
 30
0.0
 11
624.8416144040882
 21
266.5000000001799
 31
0.0
  0
LWPOLYLINE
  5
BBB
330
1F
100
AcDbEntity
  8
外形線
100
AcDbPolyline
 90
        4
 70
     0
 43
0.0
 10
578.8416144040883
 20
392.5000000001799
 10
623.8416144040883
 20
392.5000000001799
 10
623.8416144040883
 20
267.5000000001798
 10
578.8416144040883
 20
267.5000000001798
  0
LINE
  5
BBC
330
1F
100
AcDbEntity
  8
外形線
100
AcDbLine
 10
578.8416144040883
 20
392.5000000001799
 30
0.0
 11
578.8416144040883
 21
267.5000000001798
 31
0.0
  0
LINE
  5
BBD
330
1F
100
AcDbEntity
  8
隠線
100
AcDbLine
 10
581.1416144040881
 20
392.5000000001799
 30
0.0
 11
581.1416144040881
 21
267.5000000001798
 31
0.0
  0
LINE
  5
BBE
330
1F
100
AcDbEntity
  8
隠線
100
AcDbLine
 10
621.5416144040882
 20
267.5000000001798
 30
0.0
 11
621.5416144040882
 21
392.5000000001799
 31
0.0
  0
LINE
  5
BBF
330
1F
100
AcDbEntity
  8
外形線
100
AcDbLine
 10
623.8416144040883
 20
392.5000000001799
 30
0.0
 11
576.8416144040883
 21
392.5000000001799
 31
0.0
  0
LINE
  5
BC0
330
1F
100
AcDbEntity
  8
外形線
100
AcDbLine
 10
576.8416144040883
 20
393.5000000001799
 30
0.0
 11
624.8416144040882
 21
393.5000000001799
 31
0.0
  0
LINE
  5
BC1
330
1F
100
AcDbEntity
  8
外形線
100
AcDbLine
 10
576.8416144040883
 20
392.5000000001799
 30
0.0
 11
576.8416144040883
 21
393.5000000001799
 31
0.0
  0
INSERT
  5
BC3
330
1F
100
AcDbEntity
  8
外形線
100
AcDbBlockReference
  2
CRSM0400
 10
624.8416144040882
 20
372.500003448165
 30
0.0
 50
180.0
  0
INSERT
  5
BC4
330
1F
100
AcDbEntity
  8
外形線
100
AcDbBlockReference
  2
CRSM0400
 10
624.8416144040882
 20
287.499996551613
 30
0.0
 50
180.0
  0
CIRCLE
  5
BC5
330
1F
100
AcDbEntity
  8
外形線
100
AcDbCircle
 10
598.8416144040881
 20
292.5000000001798
 30
0.0
 40
9.5
  0
LINE
  5
BC6
330
1F
100
AcDbEntity
  8
外形線
100
AcDbLine
 10
576.8416144040883
 20
267.5000000001799
 30
0.0
 11
623.8416144040883
 21
267.5000000001799
 31
0.0
  0
LINE
  5
BC7
330
1F
100
AcDbEntity
  8
外形線
100
AcDbLine
 10
624.8416144040882
 20
266.5000000001799
 30
0.0
 11
576.8416144040883
 21
266.5000000001799
 31
0.0
  0
LINE
  5
BC9
330
1F
100
AcDbEntity
  8
外形線
100
AcDbLine
 10
576.8416144040883
 20
266.5000000001799
 30
0.0
 11
576.8416144040883
 21
267.5000000001799
 31
0.0
  0
LWPOLYLINE
  5
BCA
330
1F
100
AcDbEntity
  8
隠線
100
AcDbPolyline
 90
        4
 70
     1
 43
0.0
 10
625.841614404088
 20
727.0
 10
625.841614404088
 20
815.0
 10
580.8416144040879
 20
815.0
 10
580.8416144040879
 20
727.0
  0
LWPOLYLINE
  5
BCB
330
1F
100
AcDbEntity
  8
外形線
100
AcDbPolyline
 90
        4
 70
     1
 43
0.0
 10
626.8416144040879
 20
726.0
 10
626.8416144040879
 20
816.0
 10
578.8416144040881
 20
816.0
 10
578.8416144040881
 20
726.0
  0
LINE
  5
BCC
330
1F
100
AcDbEntity
  8
外形線
100
AcDbLine
 10
580.8416144040879
 20
815.0
 30
0.0
 11
580.8416144040883
 21
727.0
 31
0.0
  0
LINE
  5
BCD
330
1F
100
AcDbEntity
  8
外形線
100
AcDbLine
 10
625.8416144040883
 20
727.0
 30
0.0
 11
625.841614404088
 21
740.0
 31
0.0
  0
INSERT
  5
BCE
330
1F
100
AcDbEntity
  8
外形線
100
AcDbBlockReference
  2
CRSM0400
 10
626.8416144040879
 20
733.0000007267947
 30
0.0
 41
-1.0
  0
INSERT
  5
BD0
330
1F
100
AcDbEntity
  8
外形線
100
AcDbBlockReference
  2
CRSM0400
 10
626.8416144040879
 20
808.9999992737871
 30
0.0
 41
-1.0
  0
LINE
  5
BD1
330
1F
100
AcDbEntity
  8
外形線
100
AcDbLine
 10
625.8416144040883
 20
815.0
 30
0.0
 11
625.841614404088
 21
802.0
 31
0.0
  0
LINE
  5
BED
330
1F
100
AcDbEntity
  8
外形線
100
AcDbLine
 10
278.8999999998799
 20
1065.0
 30
0.0
 11
278.8999999998799
 21
1069.0
 31
0.0
  0
LINE
  5
BEE
330
1F
100
AcDbEntity
  8
外形線
100
AcDbLine
 10
410.09999999988
 20
1065.0
 30
0.0
 11
410.09999999988
 21
1069.0
 31
0.0
  0
LWPOLYLINE
  5
BEF
330
1F
100
AcDbEntity
  8
外形線
100
AcDbPolyline
 90
        4
 70
     1
 43
0.0
 10
414.09999999988
 20
1069.0
 10
274.8999999998799
 20
1069.0
 10
274.8999999998799
 20
1070.0
 10
414.09999999988
 20
1070.0
  0
LINE
  5
BF0
330
1F
100
AcDbEntity
  8
隠線
100
AcDbLine
 10
279.8999999998799
 20
1005.0
 30
0.0
 11
279.8999999998799
 21
1070.0
 31
0.0
  0
CIRCLE
  5
C0A
330
1F
100
AcDbEntity
  8
センタ_線
100
AcDbCircle
 10
344.4999999998799
 20
330.00000000012
 30
0.0
 40
149.9999999999999
  0
LINE
  5
C0D
330
1F
100
AcDbEntity
  8
センタ_線
100
AcDbLine
 10
70.80525645577992
 20
171.9822661391485
 30
0.0
 11
618.1947462345013
 21
488.0177354144647
 31
0.0
  0
LINE
  5
C0E
330
1F
100
AcDbEntity
  8
センタ_線
100
AcDbLine
 10
70.80525376525873
 20
488.017735414465
 30
0.0
 11
618.1947435439796
 21
171.9822661391483
 31
0.0
  0
LINE
  5
C0F
330
1F
100
AcDbEntity
  8
センタ_線
100
AcDbLine
 10
344.4999999998799
 20
13.96453383154983
 30
0.0
 11
344.4999999998799
 21
646.0354723821832
 31
0.0
  0
LINE
  5
C10
330
1F
100
AcDbEntity
  8
センタ_線
100
AcDbLine
 10
121.0291738893093
 20
106.5291823773389
 30
0.0
 11
567.9708207294076
 21
553.4708292174371
 31
0.0
  0
LINE
  5
C11
330
1F
100
AcDbEntity
  8
センタ_線
100
AcDbLine
 10
121.0291792703523
 20
553.4708292174371
 30
0.0
 11
567.9708261104506
 21
106.5291823773388
 31
0.0
  0
DIMENSION
  5
C12
330
1F
100
AcDbEntity
  8
寸法線
100
AcDbDimension
  2
*D26
 10
131.8496581032012
 20
76.5731884375593
 30
0.0
 11
181.8999002572855
 21
48.36836072457218
 31
0.0
 70
    37
 71
     5
 42
1.04719763851106
  3
MY_DIM1
100
AcDb3PointAngularDimension
 13
145.314157129459
 23
215.0000000001201
 33
0.0
 14
344.4999999998799
 24
100.00000000012
 34
0.0
 15
344.4999799175544
 25
329.999988405584
 35
0.0
1001
ACAD
1000
DSTYLE
1002
{
1070
   271
1070
     0
1002
}
  0
DIMENSION
  5
C20
330
1F
100
AcDbEntity
  8
寸法線
100
AcDbDimension
  2
*D27
 10
268.0834302117852
 20
44.80948764121399
 30
0.0
 11
344.4999999998798
 21
40.37405518333599
 31
0.0
 70
    37
 71
     5
 42
1.570796355847317
  3
MY_DIM1
100
AcDb3PointAngularDimension
 13
159.2815938989193
 23
144.7816023869489
 33
0.0
 14
529.7184061008406
 24
144.7816023869488
 34
0.0
 15
344.4999999998799
 25
330.0000031068666
 35
0.0
1001
ACAD
1000
DSTYLE
1002
{
1070
   271
1070
     0
1002
}
  0
DIMENSION
  5
C2E
330
1F
100
AcDbEntity
  8
寸法線
100
AcDbDimension
  2
*D28
 10
45.9020546925085
 20
480.0000000001199
 30
0.0
 11
40.22489695631118
 21
330.0000000001201
 31
0.0
 70
    33
  1
PCD<>
 71
     5
 42
-1.0
  3
MY_DIM1
100
AcDbAlignedDimension
 13
344.4999999998799
 23
180.00000000012
 33
0.0
 14
344.4999999998799
 24
480.0000000001198
 34
0.0
  0
DIMENSION
  5
C51
330
1F
100
AcDbEntity
  8
寸法線
100
AcDbDimension
  2
*D30
 10
77.00651277566976
 20
750.0
 30
0.0
 11
71.38151277566966
 21
720.0
 31
0.0
 70
    32
 71
     5
 42
-1.0
  3
MY_DIM1
100
AcDbAlignedDimension
 13
144.9961894322139
 23
690.0
 33
0.0
 14
118.99999999988
 24
750.0
 34
0.0
 50
90.0
100
AcDbRotatedDimension
  0
DIMENSION
  5
C5E
330
1F
100
AcDbEntity
  8
寸法線
100
AcDbDimension
  2
*D31
 10
77.00651277566985
 20
1070.0
 30
0.0
 11
71.38077458669329
 21
910.0
 31
0.0
 70
    32
 71
     5
 42
-1.0
  3
MY_DIM1
100
AcDbAlignedDimension
 13
118.99999999988
 23
750.0
 33
0.0
 14
274.8999999998799
 24
1070.0
 34
0.0
 50
90.0
100
AcDbRotatedDimension
1001
ACAD
1000
DSTYLE
1002
{
1070
   287
1070
     4
1070
   279
1070
     1
1002
}
  0
DIMENSION
  5
C78
330
1F
100
AcDbEntity
  8
寸法線
100
AcDbDimension
  2
*D32
 10
574.4999999998798
 20
823.9619283875702
 30
0.0
 11
344.4999999998799
 21
829.5869283875703
 31
0.0
 70
    32
 71
     5
 42
-1.0
  3
MY_DIM1
100
AcDbAlignedDimension
 13
114.49999999988
 23
790.0
 33
0.0
 14
574.4999999998798
 24
790.0
 34
0.0
100
AcDbRotatedDimension
  0
DIMENSION
  5
C85
330
1F
100
AcDbEntity
  8
寸法線
100
AcDbDimension
  2
*D33
 10
626.8416144040879
 20
823.9619283875702
 30
0.0
 11
600.6708072019838
 21
829.5876665765467
 31
0.0
 70
    32
 71
     5
 42
-1.0
  3
MY_DIM1
100
AcDbAlignedDimension
 13
574.4999999998798
 23
791.5
 33
0.0
 14
626.8416144040879
 24
816.0
 34
0.0
100
AcDbRotatedDimension
  0
DIMENSION
  5
C92
330
1F
100
AcDbEntity
  8
寸法線
100
AcDbDimension
  2
*D34
 10
643.900530740013
 20
726.0
 30
0.0
 11
638.2755307400127
 21
771.0000000000001
 31
0.0
 70
    32
 71
     5
 42
-1.0
  3
MY_DIM1
100
AcDbAlignedDimension
 13
626.8416144040879
 23
816.0
 33
0.0
 14
626.8416144040879
 24
726.0
 34
0.0
 50
90.0
100
AcDbRotatedDimension
  0
DIMENSION
  5
C9F
330
1F
100
AcDbEntity
  8
寸法線
100
AcDbDimension
  2
*D35
 10
652.8854151828599
 20
266.5000000001799
 30
0.0
 11
647.2596769938835
 21
330.0000000001798
 31
0.0
 70
    32
 71
     5
 42
-1.0
  3
MY_DIM1
100
AcDbAlignedDimension
 13
624.8416144040882
 23
393.5000000001799
 33
0.0
 14
624.8416144040882
 24
266.5000000001799
 34
0.0
 50
90.0
100
AcDbRotatedDimension
  0
DIMENSION
  5
CAC
330
1F
100
AcDbEntity
  8
寸法線
100
AcDbDimension
  2
*D36
 10
169.436406647933
 20
526.2510649071026
 30
0.0
 11
185.1098977299594
 21
519.7244422597045
 31
0.0
 70
    33
 71
     5
 42
-1.0
  3
MY_DIM1
100
AcDbAlignedDimension
 13
185.4394084907217
 23
496.1316593211437
 33
0.0
 14
161.6150505203826
 24
517.5518542347544
 34
0.0
  0
LEADER
  5
CB9
330
1F
100
AcDbEntity
  8
寸法線
100
AcDbLeader
  3
MY_DIM1
 73
     0
 74
     0
 75
     1
 40
7.5
 41
67.12500000000002
 76
     3
 10
159.2816023867089
 20
515.2184061010806
 30
0.0
 10
164.9296321850379
 20
552.4065200254766
 30
0.0
 10
172.4296321850379
 20
552.4065200254766
 30
0.0
340
CBA
1001
ACAD
1000
DSTYLE
1002
{
1070
     5
1000

1002
}
1000
LEANOF
1010
0.0
1020
0.0
1030
0.0
  0
MTEXT
  5
CBA
330
1F
100
AcDbEntity
  8
寸法線
100
AcDbMText
 10
174.3046321850379
 20
554.2815200254766
 30
0.0
 40
7.5
 41
0.0
 71
     7
 72
     5
  1
取付ボルト4-M8
 73
     1
 44
1.0
1001
ACAD
1000
MTEXTBEGIN
1070
    73
1070
     1
1070
    44
1040
1.0
1070
    74
1070
     0
1000
MTEXTEND
  0
LEADER
  5
CBC
330
1F
100
AcDbEntity
  8
寸法線
100
AcDbLeader
  3
MY_DIM1
 73
     0
 74
     0
 75
     1
 40
7.5
 41
35.625
 76
     3
 10
604.2571171307098
 20
374.0991072030642
 30
0.0
 10
619.7022844244364
 20
428.3834831260168
 30
0.0
 10
627.2022844244364
 20
428.3834831260168
 30
0.0
340
CBD
1001
ACAD
1000
DSTYLE
1002
{
1070
     5
1000

1002
}
1000
LEANOF
1010
0.0
1020
0.0
1030
0.0
  0
MTEXT
  5
CBD
330
1F
100
AcDbEntity
  8
寸法線
100
AcDbMText
 10
629.0772844244364
 20
430.2584831260168
 30
0.0
 40
7.5
 41
0.0
 71
     7
 72
     5
  1
端子BOX
 73
     1
 44
1.0
1001
ACAD
1000
MTEXTBEGIN
1070
    73
1070
     1
1070
    44
1040
1.0
1070
    74
1070
     0
1000
MTEXTEND
  0
LEADER
  5
CBE
330
1F
100
AcDbEntity
  8
寸法線
100
AcDbLeader
  3
MY_DIM1
 73
     0
 74
     0
 75
     1
 40
20.0
 41
89.14682765030734
 76
     3
 10
600.7305545801523
 20
283.1896882432486
 30
0.0
 10
611.224377287539
 20
231.4671603592297
 30
0.0
 10
618.724377287539
 20
231.4671603592297
 30
0.0
340
CBF
1001
ACAD
1000
DSTYLE
1002
{
1070
     5
1000

1002
}
1000
LEANOF
1010
0.0
1020
0.0
1030
0.0
  0
MTEXT
  5
CBF
330
1F
100
AcDbEntity
  8
寸法線
100
AcDbMText
 10
620.599377287539
 20
233.3421603592297
 30
0.0
 40
7.5
 41
0.0
 71
     7
 72
     5
  1
配線用膜付グロメット\P%%c19
 73
     1
 44
1.0
1001
ACAD
1000
MTEXTBEGIN
1070
    73
1070
     1
1070
    44
1040
1.0
1070
    74
1070
     0
1000
MTEXTEND
  0
LINE
  5
CD5
330
1F
100
AcDbEntity
  8
隠線
100
AcDbLine
 10
409.0999999998798
 20
1005.0
 30
0.0
 11
409.0999999998798
 21
1070.0
 31
0.0
  0
DIMENSION
  5
CD6
330
1F
100
AcDbEntity
  8
寸法線
100
AcDbDimension
  2
*D37
 10
409.0999999998798
 20
1083.941665268214
 30
0.0
 11
344.4999999998799
 21
1089.569216053514
 31
0.0
 70
    32
  1
内径<>
 71
     5
 42
-1.0
  3
MY_DIM1
100
AcDbAlignedDimension
 13
279.8999999998799
 23
1070.0
 33
0.0
 14
409.0999999998798
 24
1070.0
 34
0.0
100
AcDbRotatedDimension
  0
DIMENSION
  5
CEC
330
1F
100
AcDbEntity
  8
寸法線
100
AcDbDimension
  2
*D38
 10
414.09999999988
 20
1104.745047564719
 30
0.0
 11
344.4999999998799
 21
1110.745047564719
 31
0.0
 70
    32
  1
ツバ径<>(t1.0)
 71
     5
 42
-1.0
  3
MY_DIM1
100
AcDbAlignedDimension
 13
274.8999999998799
 23
1070.0
 33
0.0
 14
414.09999999988
 24
1070.0
 34
0.0
100
AcDbRotatedDimension
  0
DIMENSION
  5
D02
330
1F
100
AcDbEntity
  8
寸法線
100
AcDbDimension
  2
*D39
 10
435.0647078153756
 20
355.0260568431689
 30
0.0
 11
489.0942154809165
 21
423.6617743857308
 31
0.0
 70
   163
  1
内径<>
 71
     5
 42
-1.0
  3
MY_DIM1$3
100
AcDbDiametricDimension
 15
513.7429133197165
 25
454.9739431570712
 35
0.0
 40
0.0
1001
ACAD
1000
DSTYLE
1002
{
1070
   288
1070
     1
1002
}
  0
DIMENSION
  5
D35
330
1F
100
AcDbEntity
  8
寸法線
100
AcDbDimension
  2
*D40
 10
408.0913714946142
 20
383.8618727368375
 30
0.0
 11
582.6863309899777
 21
439.5167472209688
 31
0.0
 70
   163
  1
ツバ径<>
 71
     5
 42
-1.0
  3
MY_DIM1$3
100
AcDbDiametricDimension
 15
540.7162496404778
 25
426.1381272634023
 35
0.0
 40
0.0
1001
ACAD
1000
DSTYLE
1002
{
1070
   288
1070
     1
1002
}
  0
MTEXT
  5
D68
330
1F
100
AcDbEntity
  8
0
100
AcDbMText
 10
-52.15772761891479
 20
1205.74859831637
 30
0.0
 40
20.0
 41
365.393
 71
     1
 72
     5
  1
KR6-130 flange
 73
     1
 44
1.0
1001
ACAD
1000
MTEXTBEGIN
1070
    73
1070
     1
1070
    44
1040
1.0
1070
    74
1070
     0
1000
MTEXTEND
  0
LINE
  5
E3C
330
1F
100
AcDbEntity
  8
0
  6
Continuous
 62
     4
100
AcDbLine
 10
374.7999999997597
 20
670.2999999999998
 30
0.0
 11
344.4999999997597
 21
670.2999999999998
 31
0.0
  0
LINE
  5
E3D
330
1F
100
AcDbEntity
  8
0
  6
Continuous
 62
     4
100
AcDbLine
 10
374.7999999997596
 20
676.7999999999999
 30
0.0
 11
344.4999999997597
 21
676.7999999999999
 31
0.0
  0
LINE
  5
E3E
330
1F
100
AcDbEntity
  8
0
  6
Continuous
 62
     4
100
AcDbLine
 10
373.2487379997598
 20
669.5999999999997
 30
0.0
 11
365.2487379997598
 21
669.5999999999997
 31
0.0
  0
LINE
  5
E3F
330
1F
100
AcDbEntity
  8
0
  6
Continuous
 62
     4
100
AcDbLine
 10
374.7999999997597
 20
670.2999999999998
 30
0.0
 11
374.7999999997597
 21
676.7999999999999
 31
0.0
  0
LINE
  5
E40
330
1F
100
AcDbEntity
  8
0
  6
Continuous
 62
     4
100
AcDbLine
 10
373.2487379997598
 20
669.5999999999997
 30
0.0
 11
373.2487379997598
 21
670.2999999999998
 31
0.0
  0
LINE
  5
E41
330
1F
100
AcDbEntity
  8
0
  6
Continuous
 62
     4
100
AcDbLine
 10
365.2487379997598
 20
669.5999999999997
 30
0.0
 11
365.2487379997598
 21
670.2999999999998
 31
0.0
  0
LINE
  5
E42
330
1F
100
AcDbEntity
  8
0
  6
Continuous
 62
     4
100
AcDbLine
 10
374.5
 20
676.8
 30
0.0
 11
374.5
 21
690.0
 31
0.0
  0
DIMENSION
  5
E44
330
1F
100
AcDbEntity
  8
寸法線
100
AcDbDimension
  2
*D41
 10
672.6293630144217
 20
611.7999999999998
 30
0.0
 11
667.0036248254453
 21
840.9
 31
0.0
 70
    32
 71
     5
 42
458.2
  3
MY_DIM1
100
AcDbAlignedDimension
 13
414.09999999988
 23
1070.0
 33
0.0
 14
344.4999999998799
 24
611.7999999999998
 34
0.0
 50
90.0
100
AcDbRotatedDimension
  0
DIMENSION
  5
E51
330
1F
100
AcDbEntity
  8
寸法線
100
AcDbDimension
  2
*D42
 10
626.8416144040879
 20
1129.407152820678
 30
0.0
 11
370.670807201984
 21
1135.032891009654
 31
0.0
 70
    32
 71
     5
 42
512.341614404208
  3
MY_DIM1
100
AcDbAlignedDimension
 13
114.49999999988
 23
823.9619283875702
 33
0.0
 14
626.8416144040879
 24
823.9619283875702
 34
0.0
100
AcDbRotatedDimension
  0
VIEWPORT
  5
D5D
102
{ACAD_XDICTIONARY
360
E81
102
}
330
526
100
AcDbEntity
 67
     1
  8
0
100
AcDbViewport
 10
142.5892477035522
 20
204.0995798110961
 30
0.0
 40
837.3753003832472
 41
444.3035612792969
 68
     2
 69
     1
 12
142.5892477035522
 22
204.0995798110961
 13
0.0
 23
0.0
 14
10.0
 24
10.0
 15
10.0
 25
10.0
 16
0.0
 26
0.0
 36
1.0
 17
0.0
 27
0.0
 37
0.0
 42
50.0
 43
0.0
 44
0.0
 45
444.3035612792969
 50
0.0
 51
0.0
 72
   100
 90
    32800
  1

281
     0
 71
     1
 74
     0
110
0.0
120
0.0
130
0.0
111
1.0
121
0.0
131
0.0
112
0.0
122
1.0
132
0.0
 79
     0
146
0.0
  0
VIEWPORT
  5
D5F
102
{ACAD_XDICTIONARY
360
E83
102
}
330
526
100
AcDbEntity
 67
     1
  8
0
100
AcDbViewport
 10
142.5892473416389
 20
204.9811345653286
 30
0.0
 40
271.7719637415923
 41
395.8180537865949
 68
     1
 69
     2
 12
373.084469074991
 22
542.6219743441048
 13
0.0
 23
0.0
 14
1.0
 24
1.0
 15
10.0
 25
10.0
 16
0.0
 26
0.0
 36
1.0
 17
0.0
 27
0.0
 37
0.0
 42
50.0
 43
0.0
 44
0.0
 45
1417.624450457843
 50
0.0
 51
0.0
 72
   100
 90
    32864
  1

281
     0
 71
     1
 74
     0
110
0.0
120
0.0
130
0.0
111
1.0
121
0.0
131
0.0
112
0.0
122
1.0
132
0.0
 79
     0
146
0.0
  0
ENDSEC
  0
SECTION
  2
OBJECTS
  0
DICTIONARY
  5
C
330
0
100
AcDbDictionary
281
     1
  3
ACAD_COLOR
350
E0F
  3
ACAD_GROUP
350
D
  3
ACAD_LAYOUT
350
1A
  3
ACAD_MATERIAL
350
DE5
  3
ACAD_MLEADERSTYLE
350
E34
  3
ACAD_MLINESTYLE
350
17
  3
ACAD_PLOTSETTINGS
350
19
  3
ACAD_PLOTSTYLENAME
350
DE3
  3
ACAD_SCALELIST
350
E12
  3
ACAD_TABLESTYLE
350
E10
  3
ACAD_VISUALSTYLE
350
DFE
  3
ACDB_RECOMPOSE_DATA
350
E7B
  3
AcDbVariableDictionary
350
E72
  3
DWGPROPS
350
E7C
1001
ACAD
1000
TREAT_AS_HARD
1070
     0
  0
DICTIONARY
  5
E5E
330
10
100
AcDbDictionary
280
     1
281
     1
  3
ADSK_XREC_LAYER_RECONCILED
360
E5F
  0
DICTIONARY
  5
E60
330
49
100
AcDbDictionary
280
     1
281
     1
  3
ADSK_XREC_LAYER_RECONCILED
360
E61
  0
DICTIONARY
  5
E62
330
4A
100
AcDbDictionary
280
     1
281
     1
  3
ADSK_XREC_LAYER_RECONCILED
360
E63
  0
DICTIONARY
  5
E64
330
4B
100
AcDbDictionary
280
     1
281
     1
  3
ADSK_XREC_LAYER_RECONCILED
360
E65
  0
DICTIONARY
  5
E66
330
4C
100
AcDbDictionary
280
     1
281
     1
  3
ADSK_XREC_LAYER_RECONCILED
360
E67
  0
DICTIONARY
  5
E68
330
4D
100
AcDbDictionary
280
     1
281
     1
  3
ADSK_XREC_LAYER_RECONCILED
360
E69
  0
DICTIONARY
  5
E6A
330
6B
100
AcDbDictionary
280
     1
281
     1
  3
ADSK_XREC_LAYER_RECONCILED
360
E6B
  0
DICTIONARY
  5
E6C
330
71
100
AcDbDictionary
280
     1
281
     1
  3
ADSK_XREC_LAYER_RECONCILED
360
E6D
  0
DICTIONARY
  5
E6E
330
26A
100
AcDbDictionary
280
     1
281
     1
  3
ADSK_XREC_LAYER_RECONCILED
360
E6F
  0
DICTIONARY
  5
E70
330
4AD
100
AcDbDictionary
280
     1
281
     1
  3
ADSK_XREC_LAYER_RECONCILED
360
E71
  0
DICTIONARY
  5
D6B
330
1F
100
AcDbDictionary
281
     1
  3
ACAD_LAYOUTSELFREF
350
D6C
  3
ACAD_SORTENTS
350
E43
  0
DICTIONARY
  5
D6D
330
526
100
AcDbDictionary
281
     1
  3
ACAD_LAYOUTSELFREF
350
D6E
  0
DICTIONARY
  5
E7D
330
D32
100
AcDbDictionary
280
     1
281
     1
  3
ACAD_MTEXT_RT
360
E7E
  0
DICTIONARY
  5
E7F
330
D50
100
AcDbDictionary
280
     1
281
     1
  3
ACAD_MTEXT_RT
360
E80
  0
DICTIONARY
  5
E81
330
D5D
100
AcDbDictionary
280
     1
281
     1
  3
ACAD_XREC_ROUNDTRIP
360
E82
  0
DICTIONARY
  5
E83
330
D5F
100
AcDbDictionary
280
     1
281
     1
  3
ACAD_XREC_ROUNDTRIP
360
E84
  0
DICTIONARY
  5
E0F
102
{ACAD_REACTORS
330
C
102
}
330
C
100
AcDbDictionary
281
     1
  0
DICTIONARY
  5
D
102
{ACAD_REACTORS
330
C
102
}
330
C
100
AcDbDictionary
281
     1
1001
ACAD
1000
TREAT_AS_HARD
1070
     0
  0
DICTIONARY
  5
1A
102
{ACAD_REACTORS
330
C
102
}
330
C
100
AcDbDictionary
281
     1
  3
Model
350
E37
  3
レイアウト1
350
E38
1001
ACAD
1000
TREAT_AS_HARD
1070
     0
  0
DICTIONARY
  5
DE5
102
{ACAD_REACTORS
330
C
102
}
330
C
100
AcDbDictionary
281
     1
  3
ByBlock
350
DEE
  3
ByLayer
350
DE6
  3
Global
350
DF6
  0
DICTIONARY
  5
E34
102
{ACAD_REACTORS
330
C
102
}
330
C
100
AcDbDictionary
281
     1
  3
Standard
350
E35
  0
DICTIONARY
  5
17
102
{ACAD_REACTORS
330
C
102
}
330
C
100
AcDbDictionary
281
     1
  3
STANDARD
350
18
1001
ACAD
1000
TREAT_AS_HARD
1070
     0
  0
DICTIONARY
  5
19
102
{ACAD_REACTORS
330
C
102
}
330
C
100
AcDbDictionary
281
     1
1001
ACAD
1000
TREAT_AS_HARD
1070
     0
  0
ACDBDICTIONARYWDFLT
  5
DE3
102
{ACAD_REACTORS
330
C
102
}
330
C
100
AcDbDictionary
281
     1
  3
Normal
350
DE4
100
AcDbDictionaryWithDefault
340
DE4
  0
DICTIONARY
  5
E12
102
{ACAD_REACTORS
330
C
102
}
330
C
100
AcDbDictionary
281
     1
  3
A0
350
E13
  3
A1
350
E14
  3
A2
350
E15
  3
A3
350
E16
  3
A4
350
E17
  3
A5
350
E18
  3
A6
350
E19
  3
A7
350
E1A
  3
A8
350
E1B
  3
A9
350
E1C
  3
B0
350
E1D
  3
B1
350
E1E
  3
B2
350
E1F
  3
B3
350
E20
  3
B4
350
E21
  3
B5
350
E22
  3
B6
350
E23
  3
B7
350
E24
  3
B8
350
E25
  3
B9
350
E26
  3
C0
350
E27
  3
C1
350
E28
  3
C2
350
E29
  3
C3
350
E2A
  3
C4
350
E2B
  3
C5
350
E2C
  3
C6
350
E2D
  3
C7
350
E2E
  3
C8
350
E2F
  3
C9
350
E30
  3
D0
350
E31
  3
D1
350
E32
  3
D2
350
E33
  0
DICTIONARY
  5
E10
102
{ACAD_REACTORS
330
C
102
}
330
C
100
AcDbDictionary
281
     1
  3
Standard
350
E11
  0
DICTIONARY
  5
DFE
102
{ACAD_REACTORS
330
C
102
}
330
C
100
AcDbDictionary
281
     1
  3
2dWireframe
350
E04
  3
3D Hidden
350
E06
  3
3dWireframe
350
E05
  3
Basic
350
E03
  3
Brighten
350
E0A
  3
ColorChange
350
E0E
  3
Conceptual
350
E07
  3
Dim
350
E09
  3
Facepattern
350
E0D
  3
Flat
350
DFF
  3
FlatWithEdges
350
E00
  3
Gouraud
350
E01
  3
GouraudWithEdges
350
E02
  3
Linepattern
350
E0C
  3
Realistic
350
E08
  3
Thicken
350
E0B
  0
XRECORD
  5
E7B
102
{ACAD_REACTORS
330
C
102
}
330
C
100
AcDbXrecord
280
     1
 90
        1
330
E11
  0
DICTIONARY
  5
E72
102
{ACAD_REACTORS
330
C
102
}
330
C
100
AcDbDictionary
281
     1
  3
CANNOSCALE
350
E75
  3
CMLEADERSTYLE
350
E74
  3
CTABLESTYLE
350
E73
  3
DIMASSOC
350
E78
  3
INDEXCTL
350
E77
  3
SORTENTS
350
E76
  0
XRECORD
  5
E7C
102
{ACAD_REACTORS
330
C
102
}
330
C
100
AcDbXrecord
280
     1
  1
DWGPROPS COOKIE
  2

  3

  4

  6

  7

  8
有限会社きょうじ
  9

300
=
301
=
302
=
303
=
304
=
305
=
306
=
307
=
308
=
309
=
 40
0.3146143402777778
 41
2451959.740335185
 42
2455008.398221747
  1

 90
        0
  0
XRECORD
  5
E5F
102
{ACAD_REACTORS
330
E5E
102
}
330
E5E
100
AcDbXrecord
280
     1
290
     1
  0
XRECORD
  5
E61
102
{ACAD_REACTORS
330
E60
102
}
330
E60
100
AcDbXrecord
280
     1
290
     1
  0
XRECORD
  5
E63
102
{ACAD_REACTORS
330
E62
102
}
330
E62
100
AcDbXrecord
280
     1
290
     1
  0
XRECORD
  5
E65
102
{ACAD_REACTORS
330
E64
102
}
330
E64
100
AcDbXrecord
280
     1
290
     1
  0
XRECORD
  5
E67
102
{ACAD_REACTORS
330
E66
102
}
330
E66
100
AcDbXrecord
280
     1
290
     1
  0
XRECORD
  5
E69
102
{ACAD_REACTORS
330
E68
102
}
330
E68
100
AcDbXrecord
280
     1
290
     1
  0
XRECORD
  5
E6B
102
{ACAD_REACTORS
330
E6A
102
}
330
E6A
100
AcDbXrecord
280
     1
290
     1
  0
XRECORD
  5
E6D
102
{ACAD_REACTORS
330
E6C
102
}
330
E6C
100
AcDbXrecord
280
     1
290
     1
  0
XRECORD
  5
E6F
102
{ACAD_REACTORS
330
E6E
102
}
330
E6E
100
AcDbXrecord
280
     1
290
     1
  0
XRECORD
  5
E71
102
{ACAD_REACTORS
330
E70
102
}
330
E70
100
AcDbXrecord
280
     1
290
     1
  0
XRECORD
  5
D6C
102
{ACAD_REACTORS
330
D6B
102
}
330
D6B
100
AcDbXrecord
280
     1
340
1F
  0
SORTENTSTABLE
  5
E43
102
{ACAD_REACTORS
330
D6B
102
}
330
D6B
100
AcDbSortentsTable
330
1F
331
B78
  5
B79
331
B1C
  5
B1D
331
A68
  5
A86
331
CBF
  5
CD5
331
970
  5
971
331
BB9
  5
BBA
331
940
  5
940
331
91E
  5
91E
331
7D5
  5
7D5
331
A89
  5
A8A
331
C0D
  5
C0E
331
96A
  5
96B
331
CD6
  5
CEC
331
B77
  5
B78
331
B2D
  5
B2E
331
7A9
  5
7A9
331
E3D
  5
E3E
331
9D3
  5
9D4
331
92F
  5
92F
331
272
  5
272
331
BC0
  5
BC1
331
B3C
  5
B3D
331
CBD
  5
CBE
331
805
  5
805
331
7D3
  5
7D3
331
B87
  5
B88
331
A87
  5
A88
331
968
  5
969
331
93E
  5
93E
331
91C
  5
91C
331
B2B
  5
B2C
331
B75
  5
B76
331
97F
  5
984
331
7E4
  5
7E4
331
7B2
  5
7B2
331
6DA
  5
6DA
331
A1B
  5
A35
331
92D
  5
92D
331
270
  5
270
331
B3A
  5
B3B
331
B8A
  5
B8B
331
B85
  5
B86
331
93C
  5
93C
331
91A
  5
91A
331
7D1
  5
7D1
331
C2E
  5
C44
331
B73
  5
B74
331
AE7
  5
AE9
331
966
  5
967
331
824
  5
824
331
7A5
  5
7A5
331
906
  5
906
331
92B
  5
92B
331
612
  5
612
331
26E
  5
26E
331
CB9
  5
CBA
331
B38
  5
B39
331
98C
  5
98D
331
C11
  5
C12
331
B88
  5
B89
331
B83
  5
B84
331
BCD
  5
BCE
331
964
  5
965
331
B27
  5
B28
331
AE5
  5
AE6
331
93A
  5
93A
331
918
  5
918
331
83B
  5
83B
331
D02
  5
D35
331
B71
  5
B72
331
97B
  5
97F
331
90F
  5
90F
331
904
  5
904
331
7E0
  5
7E0
331
929
  5
929
331
A94
  5
AC5
331
94B
  5
94B
331
7CF
  5
7CF
331
6D2
  5
6D2
331
610
  5
610
331
A0C
  5
A10
331
98A
  5
98B
331
B81
  5
B82
331
BCB
  5
BCC
331
962
  5
963
331
AE3
  5
AE4
331
938
  5
938
331
916
  5
916
331
839
  5
839
331
90D
  5
90D
331
902
  5
902
331
7DE
  5
7DE
331
927
  5
927
331
B36
  5
B37
331
6D0
  5
6D0
331
60E
  5
60E
331
988
  5
989
331
914
  5
914
331
B7F
  5
B80
331
CAC
  5
CB9
331
BC9
  5
BCA
331
960
  5
961
331
936
  5
936
331
9C9
  5
9CA
331
C51
  5
C5E
331
A90
  5
A91
331
925
  5
925
331
90B
  5
90B
331
900
  5
900
331
7DC
  5
7DC
331
837
  5
837
331
7CB
  5
7CB
331
625
  5
625
331
E42
  5
95A
331
912
  5
912
331
D35
  5
D68
331
B7D
  5
B7E
331
C78
  5
C85
331
BC7
  5
BC9
331
95E
  5
95F
331
B21
  5
B22
331
934
  5
934
331
A11
  5
A12
331
9C7
  5
9C8
331
923
  5
923
331
909
  5
909
331
8FE
  5
8FE
331
80C
  5
80C
331
7DA
  5
7DA
331
BBE
  5
BBF
331
A8E
  5
A8F
331
BD0
  5
BD1
331
96F
  5
970
331
945
  5
945
331
986
  5
987
331
835
  5
835
331
7FB
  5
7FB
331
634
  5
634
331
623
  5
623
331
E40
  5
E41
331
910
  5
910
331
B7B
  5
B7C
331
BC5
  5
BC6
331
95C
  5
95D
331
C5E
  5
C78
331
BEF
  5
BF0
331
AC5
  5
AC6
331
932
  5
932
331
A59
  5
A68
331
BBC
  5
BBD
331
A8C
  5
A8D
331
B30
  5
B35
331
96D
  5
96E
331
943
  5
943
331
921
  5
921
331
8FC
  5
8FC
331
984
  5
985
331
7F9
  5
7F9
331
7D8
  5
7D8
331
621
  5
621
331
275
  5
275
331
B79
  5
B7A
331
BED
  5
BEE
331
BC3
  5
BC4
331
95A
  5
95C
331
B1D
  5
B1E
331
930
  5
930
331
971
  5
972
331
7D6
  5
7D6
331
C20
  5
C2E
331
BBA
  5
BBB
331
941
  5
941
331
91F
  5
91F
331
A8A
  5
A8B
331
C85
  5
C92
331
96B
  5
96C
331
C0E
  5
C0F
331
B2E
  5
B2F
331
7B5
  5
7B5
331
7AA
  5
7AA
331
6DD
  5
6DD
331
E3E
  5
E3F
331
9D4
  5
9D5
331
273
  5
273
331
BC1
  5
BC3
331
CBE
  5
CBF
331
B3D
  5
B6C
331
7D4
  5
7D4
331
93F
  5
93F
331
91D
  5
91D
331
A88
  5
A89
331
CD5
  5
CD6
331
B2C
  5
B2D
331
969
  5
96A
331
B76
  5
B77
331
7A8
  5
7A8
331
6DB
  5
6DB
331
E3C
  5
E3D
331
9D2
  5
9D3
331
92E
  5
92E
331
271
  5
271
331
D68
  5
E3C
331
CBC
  5
CBD
331
B3B
  5
B3C
331
B8B
  5
BB9
331
B86
  5
B87
331
A86
  5
A87
331
C0A
  5
C0D
331
967
  5
968
331
B2A
  5
B2B
331
93D
  5
93D
331
91B
  5
91B
331
B74
  5
B75
331
825
  5
825
331
7E3
  5
7E3
331
7D2
  5
7D2
331
92C
  5
92C
331
613
  5
613
331
26F
  5
26F
331
CBA
  5
CBC
331
B39
  5
B3A
331
A51
  5
A59
331
98D
  5
9C7
331
C12
  5
C20
331
B89
  5
B8A
331
B84
  5
B85
331
93B
  5
93B
331
919
  5
919
331
83C
  5
83C
331
7D0
  5
7D0
331
BCE
  5
BD0
331
965
  5
966
331
B28
  5
B2A
331
AE6
  5
AE7
331
B72
  5
B73
331
905
  5
905
331
7E1
  5
7E1
331
7A4
  5
7A4
331
92A
  5
92A
331
94C
  5
94C
331
6D3
  5
6D3
331
611
  5
611
331
98B
  5
98C
331
83A
  5
83A
331
C10
  5
C11
331
B82
  5
B83
331
BCC
  5
BCD
331
963
  5
964
331
B26
  5
B27
331
AE4
  5
AE5
331
939
  5
939
331
917
  5
917
331
97A
  5
97B
331
9CC
  5
9D2
331
90E
  5
90E
331
903
  5
903
331
821
  5
821
331
7DF
  5
7DF
331
AED
  5
B1C
331
94A
  5
94A
331
928
  5
928
331
B37
  5
B38
331
7CE
  5
7CE
331
60F
  5
60F
331
27C
  5
27C
331
A35
  5
A51
331
A0B
  5
A0C
331
989
  5
98A
331
B80
  5
B81
331
BCA
  5
BCB
331
961
  5
962
331
937
  5
937
331
915
  5
915
331
838
  5
838
331
B6E
  5
B71
331
9CA
  5
9CC
331
AEB
  5
AED
331
A91
  5
A94
331
926
  5
926
331
90C
  5
90C
331
901
  5
901
331
7DD
  5
7DD
331
B35
  5
B36
331
7CC
  5
7CC
331
B7E
  5
B7F
331
B22
  5
B26
331
95F
  5
960
331
935
  5
935
331
913
  5
913
331
B6C
  5
B6E
331
A12
  5
A1B
331
9C8
  5
9C9
331
BBF
  5
BC0
331
BD1
  5
BED
331
A8F
  5
A90
331
CEC
  5
D02
331
C92
  5
C9F
331
AE9
  5
AEB
331
946
  5
946
331
924
  5
924
331
90A
  5
90A
331
8FF
  5
8FF
331
987
  5
988
331
836
  5
836
331
7FC
  5
7FC
331
7DB
  5
7DB
331
E41
  5
E42
331
911
  5
911
331
B7C
  5
B7D
331
BC6
  5
BC7
331
95D
  5
95E
331
BF0
  5
C0A
331
B20
  5
B21
331
AC6
  5
AE3
331
933
  5
933
331
A10
  5
A11
331
BBD
  5
BBE
331
A8D
  5
A8E
331
96E
  5
96F
331
944
  5
944
331
922
  5
922
331
908
  5
908
331
8FD
  5
8FD
331
80B
  5
80B
331
985
  5
986
331
834
  5
834
331
7FA
  5
7FA
331
7D9
  5
7D9
331
622
  5
622
331
BEE
  5
BEF
331
BC4
  5
BC5
331
B7A
  5
B7B
331
C9F
  5
CAC
331
B1E
  5
B20
331
931
  5
931
331
972
  5
97A
331
7D7
  5
7D7
331
BBB
  5
BBC
331
942
  5
942
331
920
  5
920
331
A8B
  5
A8C
331
C0F
  5
C10
331
96C
  5
96D
331
B2F
  5
B30
331
7AB
  5
7AB
331
6DE
  5
6DE
331
620
  5
620
331
E3F
  5
E40
331
9D5
  5
A0B
331
274
  5
274
  0
XRECORD
  5
D6E
102
{ACAD_REACTORS
330
D6D
102
}
330
D6D
100
AcDbXrecord
280
     1
340
526
  0
XRECORD
  5
E7E
102
{ACAD_REACTORS
330
E7D
102
}
330
E7D
100
AcDbXrecord
280
     1
 40
6549.0
  1
内径\U+2205127.2
  0
XRECORD
  5
E80
102
{ACAD_REACTORS
330
E7F
102
}
330
E7F
100
AcDbXrecord
280
     1
 40
8215.0
  1
ツバ径\U+2205139.2
  0
XRECORD
  5
E82
102
{ACAD_REACTORS
330
E81
102
}
330
E81
100
AcDbXrecord
280
     1
102
SHADEPLOT
 70
     0
  0
XRECORD
  5
E84
102
{ACAD_REACTORS
330
E83
102
}
330
E83
100
AcDbXrecord
280
     1
102
SHADEPLOT
 70
     0
  0
LAYOUT
  5
E37
102
{ACAD_XDICTIONARY
360
E89
102
}
102
{ACAD_REACTORS
330
1A
102
}
330
1A
100
AcDbPlotSettings
  1

  2
Canon LASER SHOT LBP-1210
  4

  6

 40
0.0
 41
0.0
 42
0.0
 43
0.0
 44
0.0
 45
0.0
 46
0.0
 47
0.0
 48
0.0
 49
0.0
140
0.0
141
0.0
142
1.0
143
1.0
 70
  1712
 72
     0
 73
     0
 74
     0
  7

 75
     0
147
1.0
148
0.0
149
0.0
100
AcDbLayout
  1
Model
 70
     1
 71
     0
 10
0.0
 20
0.0
 11
12.0
 21
9.0
 12
0.0
 22
0.0
 32
0.0
 14
0.0
 24
0.0
 34
0.0
 15
0.0
 25
0.0
 35
0.0
146
0.0
 13
0.0
 23
0.0
 33
0.0
 16
1.0
 26
0.0
 36
0.0
 17
0.0
 27
1.0
 37
0.0
 76
     0
330
1F
331
D6A
  0
LAYOUT
  5
E38
102
{ACAD_XDICTIONARY
360
E8B
102
}
102
{ACAD_REACTORS
330
1A
102
}
330
1A
100
AcDbPlotSettings
  1

  2
Canon LASER SHOT LBP-1210
  4

  6

 40
0.0
 41
0.0
 42
0.0
 43
0.0
 44
0.0
 45
0.0
 46
0.0
 47
0.0
 48
0.0
 49
0.0
140
0.0
141
0.0
142
1.0
143
1.0
 70
   688
 72
     0
 73
     0
 74
     5
  7

 75
    16
147
1.0
148
0.0
149
0.0
100
AcDbLayout
  1
レイアウト1
 70
     1
 71
     1
 10
-5.873749732971191
 20
-5.873747825622557
 11
291.0522451400757
 21
414.0729074478149
 12
0.0
 22
0.0
 32
0.0
 14
6.703265470842779
 24
7.072107672031222
 34
0.0
 15
278.4752292124351
 25
402.890161458626
 35
0.0
146
0.0
 13
0.0
 23
0.0
 33
0.0
 16
1.0
 26
0.0
 36
0.0
 17
0.0
 27
1.0
 37
0.0
 76
     0
330
526
331
D5F
  0
MATERIAL
  5
DEE
102
{ACAD_XDICTIONARY
360
DEF
102
}
102
{ACAD_REACTORS
330
DE5
102
}
330
DE5
100
AcDbMaterial
  1
ByBlock
 72
     0
 43
0.0208333333333333
 43
0.0
 43
0.0
 43
0.0
 43
0.0
 43
0.0208333333333333
 43
0.0
 43
0.0
 43
0.0
 43
0.0
 43
1.0
 43
0.0
 43
0.0
 43
0.0
 43
0.0
 43
1.0
 77
     0
 47
0.0208333333333333
 47
0.0
 47
0.0
 47
0.0
 47
0.0
 47
0.0208333333333333
 47
0.0
 47
0.0
 47
0.0
 47
0.0
 47
1.0
 47
0.0
 47
0.0
 47
0.0
 47
0.0
 47
1.0
171
     0
 49
0.0208333333333333
 49
0.0
 49
0.0
 49
0.0
 49
0.0
 49
0.0208333333333333
 49
0.0
 49
0.0
 49
0.0
 49
0.0
 49
1.0
 49
0.0
 49
0.0
 49
0.0
 49
0.0
 49
1.0
175
     0
142
0.0208333333333333
142
0.0
142
0.0
142
0.0
142
0.0
142
0.0208333333333333
142
0.0
142
0.0
142
0.0
142
0.0
142
1.0
142
0.0
142
0.0
142
0.0
142
0.0
142
1.0
179
     0
144
0.0208333333333333
144
0.0
144
0.0
144
0.0
144
0.0
144
0.0208333333333333
144
0.0
144
0.0
144
0.0
144
0.0
144
1.0
144
0.0
144
0.0
144
0.0
144
0.0
144
1.0
147
0.0208333333333333
147
0.0
147
0.0
147
0.0
147
0.0
147
0.0208333333333333
147
0.0
147
0.0
147
0.0
147
0.0
147
1.0
147
0.0
147
0.0
147
0.0
147
0.0
147
1.0
  0
MATERIAL
  5
DE6
102
{ACAD_XDICTIONARY
360
DE7
102
}
102
{ACAD_REACTORS
330
DE5
102
}
330
DE5
100
AcDbMaterial
  1
ByLayer
 72
     0
 43
0.0208333333333333
 43
0.0
 43
0.0
 43
0.0
 43
0.0
 43
0.0208333333333333
 43
0.0
 43
0.0
 43
0.0
 43
0.0
 43
1.0
 43
0.0
 43
0.0
 43
0.0
 43
0.0
 43
1.0
 77
     0
 47
0.0208333333333333
 47
0.0
 47
0.0
 47
0.0
 47
0.0
 47
0.0208333333333333
 47
0.0
 47
0.0
 47
0.0
 47
0.0
 47
1.0
 47
0.0
 47
0.0
 47
0.0
 47
0.0
 47
1.0
171
     0
 49
0.0208333333333333
 49
0.0
 49
0.0
 49
0.0
 49
0.0
 49
0.0208333333333333
 49
0.0
 49
0.0
 49
0.0
 49
0.0
 49
1.0
 49
0.0
 49
0.0
 49
0.0
 49
0.0
 49
1.0
175
     0
142
0.0208333333333333
142
0.0
142
0.0
142
0.0
142
0.0
142
0.0208333333333333
142
0.0
142
0.0
142
0.0
142
0.0
142
1.0
142
0.0
142
0.0
142
0.0
142
0.0
142
1.0
179
     0
144
0.0208333333333333
144
0.0
144
0.0
144
0.0
144
0.0
144
0.0208333333333333
144
0.0
144
0.0
144
0.0
144
0.0
144
1.0
144
0.0
144
0.0
144
0.0
144
0.0
144
1.0
147
0.0208333333333333
147
0.0
147
0.0
147
0.0
147
0.0
147
0.0208333333333333
147
0.0
147
0.0
147
0.0
147
0.0
147
1.0
147
0.0
147
0.0
147
0.0
147
0.0
147
1.0
  0
MATERIAL
  5
DF6
102
{ACAD_XDICTIONARY
360
DF7
102
}
102
{ACAD_REACTORS
330
DE5
102
}
330
DE5
100
AcDbMaterial
  1
Global
 72
     0
 43
0.0208333333333333
 43
0.0
 43
0.0
 43
0.0
 43
0.0
 43
0.0208333333333333
 43
0.0
 43
0.0
 43
0.0
 43
0.0
 43
1.0
 43
0.0
 43
0.0
 43
0.0
 43
0.0
 43
1.0
 77
     0
 47
0.0208333333333333
 47
0.0
 47
0.0
 47
0.0
 47
0.0
 47
0.0208333333333333
 47
0.0
 47
0.0
 47
0.0
 47
0.0
 47
1.0
 47
0.0
 47
0.0
 47
0.0
 47
0.0
 47
1.0
171
     0
 49
0.0208333333333333
 49
0.0
 49
0.0
 49
0.0
 49
0.0
 49
0.0208333333333333
 49
0.0
 49
0.0
 49
0.0
 49
0.0
 49
1.0
 49
0.0
 49
0.0
 49
0.0
 49
0.0
 49
1.0
175
     0
142
0.0208333333333333
142
0.0
142
0.0
142
0.0
142
0.0
142
0.0208333333333333
142
0.0
142
0.0
142
0.0
142
0.0
142
1.0
142
0.0
142
0.0
142
0.0
142
0.0
142
1.0
179
     0
144
0.0208333333333333
144
0.0
144
0.0
144
0.0
144
0.0
144
0.0208333333333333
144
0.0
144
0.0
144
0.0
144
0.0
144
1.0
144
0.0
144
0.0
144
0.0
144
0.0
144
1.0
147
0.0208333333333333
147
0.0
147
0.0
147
0.0
147
0.0
147
0.0208333333333333
147
0.0
147
0.0
147
0.0
147
0.0
147
1.0
147
0.0
147
0.0
147
0.0
147
0.0
147
1.0
  0
MLEADERSTYLE
  5
E35
102
{ACAD_REACTORS
330
E34
102
}
330
E34
100
AcDbMLeaderStyle
170
     2
171
     1
172
     0
 90
        2
 40
0.0
 41
0.0
173
     1
 91
-1056964608
340
14
 92
       -2
290
     1
 42
0.09
291
     1
 43
0.36
  3
Standard
 44
0.18
300

342
11
174
     1
178
     6
175
     1
176
     0
 93
-1056964608
 45
0.18
292
     0
297
     0
 46
0.18
 94
-1056964608
 47
1.0
 49
1.0
140
1.0
293
     1
141
0.0
294
     1
177
     0
142
1.0
295
     0
296
     0
143
0.125
1001
ACAD_MLEADERVER
1070
     2
  0
MLINESTYLE
  5
18
102
{ACAD_REACTORS
330
17
102
}
330
17
100
AcDbMlineStyle
  2
STANDARD
 70
     0
  3

 62
   256
 51
90.0
 52
90.0
 71
     2
 49
0.5
 62
   256
  6
BYLAYER
 49
-0.5
 62
   256
  6
BYLAYER
  0
ACDBPLACEHOLDER
  5
DE4
102
{ACAD_REACTORS
330
DE3
102
}
330
DE3
  0
SCALE
  5
E13
102
{ACAD_REACTORS
330
E12
102
}
330
E12
100
AcDbScale
 70
     0
300
1:1
140
1.0
141
1.0
290
     1
  0
SCALE
  5
E14
102
{ACAD_REACTORS
330
E12
102
}
330
E12
100
AcDbScale
 70
     0
300
1:2
140
1.0
141
2.0
290
     0
  0
SCALE
  5
E15
102
{ACAD_REACTORS
330
E12
102
}
330
E12
100
AcDbScale
 70
     0
300
1:4
140
1.0
141
4.0
290
     0
  0
SCALE
  5
E16
102
{ACAD_REACTORS
330
E12
102
}
330
E12
100
AcDbScale
 70
     0
300
1:5
140
1.0
141
5.0
290
     0
  0
SCALE
  5
E17
102
{ACAD_REACTORS
330
E12
102
}
330
E12
100
AcDbScale
 70
     0
300
1:8
140
1.0
141
8.0
290
     0
  0
SCALE
  5
E18
102
{ACAD_REACTORS
330
E12
102
}
330
E12
100
AcDbScale
 70
     0
300
1:10
140
1.0
141
10.0
290
     0
  0
SCALE
  5
E19
102
{ACAD_REACTORS
330
E12
102
}
330
E12
100
AcDbScale
 70
     0
300
1:16
140
1.0
141
16.0
290
     0
  0
SCALE
  5
E1A
102
{ACAD_REACTORS
330
E12
102
}
330
E12
100
AcDbScale
 70
     0
300
1:20
140
1.0
141
20.0
290
     0
  0
SCALE
  5
E1B
102
{ACAD_REACTORS
330
E12
102
}
330
E12
100
AcDbScale
 70
     0
300
1:30
140
1.0
141
30.0
290
     0
  0
SCALE
  5
E1C
102
{ACAD_REACTORS
330
E12
102
}
330
E12
100
AcDbScale
 70
     0
300
1:40
140
1.0
141
40.0
290
     0
  0
SCALE
  5
E1D
102
{ACAD_REACTORS
330
E12
102
}
330
E12
100
AcDbScale
 70
     0
300
1:50
140
1.0
141
50.0
290
     0
  0
SCALE
  5
E1E
102
{ACAD_REACTORS
330
E12
102
}
330
E12
100
AcDbScale
 70
     0
300
1:100
140
1.0
141
100.0
290
     0
  0
SCALE
  5
E1F
102
{ACAD_REACTORS
330
E12
102
}
330
E12
100
AcDbScale
 70
     0
300
2:1
140
2.0
141
1.0
290
     0
  0
SCALE
  5
E20
102
{ACAD_REACTORS
330
E12
102
}
330
E12
100
AcDbScale
 70
     0
300
4:1
140
4.0
141
1.0
290
     0
  0
SCALE
  5
E21
102
{ACAD_REACTORS
330
E12
102
}
330
E12
100
AcDbScale
 70
     0
300
8:1
140
8.0
141
1.0
290
     0
  0
SCALE
  5
E22
102
{ACAD_REACTORS
330
E12
102
}
330
E12
100
AcDbScale
 70
     0
300
10:1
140
10.0
141
1.0
290
     0
  0
SCALE
  5
E23
102
{ACAD_REACTORS
330
E12
102
}
330
E12
100
AcDbScale
 70
     0
300
100:1
140
100.0
141
1.0
290
     0
  0
SCALE
  5
E24
102
{ACAD_REACTORS
330
E12
102
}
330
E12
100
AcDbScale
 70
     0
300
1/128" = 1'-0"
140
0.0078125
141
12.0
290
     0
  0
SCALE
  5
E25
102
{ACAD_REACTORS
330
E12
102
}
330
E12
100
AcDbScale
 70
     0
300
1/64" = 1'-0"
140
0.015625
141
12.0
290
     0
  0
SCALE
  5
E26
102
{ACAD_REACTORS
330
E12
102
}
330
E12
100
AcDbScale
 70
     0
300
1/32" = 1'-0"
140
0.03125
141
12.0
290
     0
  0
SCALE
  5
E27
102
{ACAD_REACTORS
330
E12
102
}
330
E12
100
AcDbScale
 70
     0
300
1/16" = 1'-0"
140
0.0625
141
12.0
290
     0
  0
SCALE
  5
E28
102
{ACAD_REACTORS
330
E12
102
}
330
E12
100
AcDbScale
 70
     0
300
3/32" = 1'-0"
140
0.09375
141
12.0
290
     0
  0
SCALE
  5
E29
102
{ACAD_REACTORS
330
E12
102
}
330
E12
100
AcDbScale
 70
     0
300
1/8" = 1'-0"
140
0.125
141
12.0
290
     0
  0
SCALE
  5
E2A
102
{ACAD_REACTORS
330
E12
102
}
330
E12
100
AcDbScale
 70
     0
300
3/16" = 1'-0"
140
0.1875
141
12.0
290
     0
  0
SCALE
  5
E2B
102
{ACAD_REACTORS
330
E12
102
}
330
E12
100
AcDbScale
 70
     0
300
1/4" = 1'-0"
140
0.25
141
12.0
290
     0
  0
SCALE
  5
E2C
102
{ACAD_REACTORS
330
E12
102
}
330
E12
100
AcDbScale
 70
     0
300
3/8" = 1'-0"
140
0.375
141
12.0
290
     0
  0
SCALE
  5
E2D
102
{ACAD_REACTORS
330
E12
102
}
330
E12
100
AcDbScale
 70
     0
300
1/2" = 1'-0"
140
0.5
141
12.0
290
     0
  0
SCALE
  5
E2E
102
{ACAD_REACTORS
330
E12
102
}
330
E12
100
AcDbScale
 70
     0
300
3/4" = 1'-0"
140
0.75
141
12.0
290
     0
  0
SCALE
  5
E2F
102
{ACAD_REACTORS
330
E12
102
}
330
E12
100
AcDbScale
 70
     0
300
1" = 1'-0"
140
1.0
141
12.0
290
     0
  0
SCALE
  5
E30
102
{ACAD_REACTORS
330
E12
102
}
330
E12
100
AcDbScale
 70
     0
300
1-1/2" = 1'-0"
140
1.5
141
12.0
290
     0
  0
SCALE
  5
E31
102
{ACAD_REACTORS
330
E12
102
}
330
E12
100
AcDbScale
 70
     0
300
3" = 1'-0"
140
3.0
141
12.0
290
     0
  0
SCALE
  5
E32
102
{ACAD_REACTORS
330
E12
102
}
330
E12
100
AcDbScale
 70
     0
300
6" = 1'-0"
140
6.0
141
12.0
290
     0
  0
SCALE
  5
E33
102
{ACAD_REACTORS
330
E12
102
}
330
E12
100
AcDbScale
 70
     0
300
1'-0" = 1'-0"
140
12.0
141
12.0
290
     0
  0
TABLESTYLE
  5
E11
102
{ACAD_XDICTIONARY
360
E79
102
}
102
{ACAD_REACTORS
330
E10
102
}
330
E10
100
AcDbTableStyle
  3
Standard
 70
     0
 71
     0
 40
0.06
 41
0.06
280
     0
281
     0
  7
STANDARD
140
0.18
170
     2
 62
     0
 63
     7
283
     0
274
    -2
284
     1
 64
     0
275
    -2
285
     1
 65
     0
276
    -2
286
     1
 66
     0
277
    -2
287
     1
 67
     0
278
    -2
288
     1
 68
     0
279
    -2
289
     1
 69
     0
  7
STANDARD
140
0.25
170
     5
 62
     0
 63
     7
283
     0
274
    -2
284
     1
 64
     0
275
    -2
285
     1
 65
     0
276
    -2
286
     1
 66
     0
277
    -2
287
     1
 67
     0
278
    -2
288
     1
 68
     0
279
    -2
289
     1
 69
     0
  7
STANDARD
140
0.18
170
     5
 62
     0
 63
     7
283
     0
274
    -2
284
     1
 64
     0
275
    -2
285
     1
 65
     0
276
    -2
286
     1
 66
     0
277
    -2
287
     1
 67
     0
278
    -2
288
     1
 68
     0
279
    -2
289
     1
 69
     0
  0
VISUALSTYLE
  5
E04
102
{ACAD_REACTORS
330
DFE
102
}
330
DFE
100
AcDbVisualStyle
  2
2dWireframe
 70
     4
 71
     0
 72
     2
 73
     0
 90
        0
 40
-0.6
 41
-30.0
 62
     5
 63
     7
 74
     1
 91
        4
 64
     7
 65
   257
 75
     1
175
     1
 42
1.0
 92
        0
 66
   257
 43
1.0
 76
     1
 77
     6
 78
     2
 67
     7
 79
     5
170
     0
171
     0
290
     0
174
     0
 93
        1
 44
0.0
173
     0
291
     0
 45
0.0
1001
ACAD
1000
AcDbSavedByObjectVersion
1070
     0
  0
VISUALSTYLE
  5
E06
102
{ACAD_REACTORS
330
DFE
102
}
330
DFE
100
AcDbVisualStyle
  2
3D Hidden
 70
     6
 71
     1
 72
     2
 73
     2
 90
        0
 40
-0.6
 41
-30.0
 62
     5
 63
     7
 74
     2
 91
        2
 64
     7
 65
   257
 75
     2
175
     1
 42
40.0
 92
        0
 66
   257
 43
1.0
 76
     1
 77
     6
 78
     2
 67
     7
 79
     3
170
     0
171
     0
290
     0
174
     0
 93
        1
 44
0.0
173
     0
291
     0
 45
0.0
1001
ACAD
1000
AcDbSavedByObjectVersion
1070
     0
  0
VISUALSTYLE
  5
E05
102
{ACAD_REACTORS
330
DFE
102
}
330
DFE
100
AcDbVisualStyle
  2
3dWireframe
 70
     5
 71
     0
 72
     2
 73
     0
 90
        0
 40
-0.6
 41
-30.0
 62
     5
 63
     7
 74
     1
 91
        4
 64
     7
 65
   257
 75
     1
175
     1
 42
1.0
 92
        0
 66
   257
 43
1.0
 76
     1
 77
     6
 78
     2
 67
     7
 79
     5
170
     0
171
     0
290
     0
174
     0
 93
        1
 44
0.0
173
     0
291
     0
 45
0.0
1001
ACAD
1000
AcDbSavedByObjectVersion
1070
     0
  0
VISUALSTYLE
  5
E03
102
{ACAD_REACTORS
330
DFE
102
}
330
DFE
100
AcDbVisualStyle
  2
Basic
 70
     7
 71
     1
 72
     0
 73
     1
 90
        0
 40
-0.6
 41
-30.0
 62
     5
 63
     7
 74
     0
 91
        4
 64
     7
 65
   257
 75
     1
175
     1
 42
1.0
 92
        8
 66
     7
 43
1.0
 76
     1
 77
     6
 78
     2
 67
     7
 79
     5
170
     0
171
     0
290
     0
174
     0
 93
        1
 44
0.0
173
     0
291
     1
 45
0.0
1001
ACAD
1000
AcDbSavedByObjectVersion
1070
     0
  0
VISUALSTYLE
  5
E0A
102
{ACAD_REACTORS
330
DFE
102
}
330
DFE
100
AcDbVisualStyle
  2
Brighten
 70
    12
 71
     2
 72
     2
 73
     0
 90
        0
 40
-0.6
 41
-30.0
 62
     5
 63
     7
 74
     1
 91
        4
 64
     7
 65
   257
 75
     1
175
     1
 42
1.0
 92
        8
 66
     7
 43
1.0
 76
     1
 77
     6
 78
     2
 67
     7
 79
     5
170
     0
171
     0
290
     0
174
     0
 93
        1
 44
50.0
173
     0
291
     1
 45
0.0
1001
ACAD
1000
AcDbSavedByObjectVersion
1070
     0
  0
VISUALSTYLE
  5
E0E
102
{ACAD_REACTORS
330
DFE
102
}
330
DFE
100
AcDbVisualStyle
  2
ColorChange
 70
    16
 71
     2
 72
     2
 73
     3
 90
        0
 40
-0.6
 41
-30.0
 62
     5
 63
     8
 74
     1
 91
        4
 64
     7
 65
   257
 75
     1
175
     1
 42
1.0
 92
        8
 66
     8
 43
1.0
 76
     1
 77
     6
 78
     2
 67
     7
 79
     5
170
     0
171
     0
290
     0
174
     0
 93
        1
 44
0.0
173
     0
291
     1
 45
0.0
1001
ACAD
1000
AcDbSavedByObjectVersion
1070
     0
  0
VISUALSTYLE
  5
E07
102
{ACAD_REACTORS
330
DFE
102
}
330
DFE
100
AcDbVisualStyle
  2
Conceptual
 70
     9
 71
     3
 72
     2
 73
     0
 90
        0
 40
-0.6
 41
-30.0
 62
     5
 63
     7
 74
     2
 91
        2
 64
     7
 65
   257
 75
     1
175
     1
 42
40.0
 92
        8
 66
     7
 43
1.0
 76
     1
 77
     6
 78
     2
 67
     7
 79
     3
170
     0
171
     0
290
     0
174
     0
 93
        1
 44
0.0
173
     0
291
     0
 45
0.0
1001
ACAD
1000
AcDbSavedByObjectVersion
1070
     0
  0
VISUALSTYLE
  5
E09
102
{ACAD_REACTORS
330
DFE
102
}
330
DFE
100
AcDbVisualStyle
  2
Dim
 70
    11
 71
     2
 72
     2
 73
     0
 90
        0
 40
-0.6
 41
-30.0
 62
     5
 63
     7
 74
     1
 91
        4
 64
     7
 65
   257
 75
     1
175
     1
 42
1.0
 92
        8
 66
     7
 43
1.0
 76
     1
 77
     6
 78
     2
 67
     7
 79
     5
170
     0
171
     0
290
     0
174
     0
 93
        1
 44
-50.0
173
     0
291
     1
 45
0.0
1001
ACAD
1000
AcDbSavedByObjectVersion
1070
     0
  0
VISUALSTYLE
  5
E0D
102
{ACAD_REACTORS
330
DFE
102
}
330
DFE
100
AcDbVisualStyle
  2
Facepattern
 70
    15
 71
     2
 72
     2
 73
     0
 90
        0
 40
-0.6
 41
-30.0
 62
     5
 63
     7
 74
     1
 91
        4
 64
     7
 65
   257
 75
     1
175
     1
 42
1.0
 92
        8
 66
     7
 43
1.0
 76
     1
 77
     6
 78
     2
 67
     7
 79
     5
170
     0
171
     0
290
     0
174
     0
 93
        1
 44
0.0
173
     0
291
     1
 45
0.0
1001
ACAD
1000
AcDbSavedByObjectVersion
1070
     0
  0
VISUALSTYLE
  5
DFF
102
{ACAD_REACTORS
330
DFE
102
}
330
DFE
100
AcDbVisualStyle
  2
Flat
 70
     0
 71
     2
 72
     1
 73
     1
 90
        2
 40
-0.6
 41
30.0
 62
     5
 63
     7
 74
     0
 91
        4
 64
     7
 65
   257
 75
     1
175
     1
 42
1.0
 92
        8
 66
     7
 43
1.0
 76
     1
 77
     6
 78
     2
 67
     7
 79
     5
170
     0
171
     0
290
     0
174
     0
 93
       13
 44
0.0
173
     0
291
     1
 45
0.0
1001
ACAD
1000
AcDbSavedByObjectVersion
1070
     0
  0
VISUALSTYLE
  5
E00
102
{ACAD_REACTORS
330
DFE
102
}
330
DFE
100
AcDbVisualStyle
  2
FlatWithEdges
 70
     1
 71
     2
 72
     1
 73
     1
 90
        2
 40
-0.6
 41
30.0
 62
     5
 63
     7
 74
     1
 91
        4
 64
     7
 65
   257
 75
     1
175
     1
 42
1.0
 92
        0
 66
   257
 43
1.0
 76
     1
 77
     6
 78
     2
 67
     7
 79
     5
170
     0
171
     0
290
     0
174
     0
 93
       13
 44
0.0
173
     0
291
     1
 45
0.0
1001
ACAD
1000
AcDbSavedByObjectVersion
1070
     0
  0
VISUALSTYLE
  5
E01
102
{ACAD_REACTORS
330
DFE
102
}
330
DFE
100
AcDbVisualStyle
  2
Gouraud
 70
     2
 71
     2
 72
     2
 73
     1
 90
        2
 40
-0.6
 41
30.0
 62
     5
 63
     7
 74
     0
 91
        4
 64
     7
 65
   257
 75
     1
175
     1
 42
1.0
 92
        0
 66
     7
 43
1.0
 76
     1
 77
     6
 78
     2
 67
     7
 79
     5
170
     0
171
     0
290
     0
174
     0
 93
       13
 44
0.0
173
     0
291
     1
 45
0.0
1001
ACAD
1000
AcDbSavedByObjectVersion
1070
     0
  0
VISUALSTYLE
  5
E02
102
{ACAD_REACTORS
330
DFE
102
}
330
DFE
100
AcDbVisualStyle
  2
GouraudWithEdges
 70
     3
 71
     2
 72
     2
 73
     1
 90
        2
 40
-0.6
 41
30.0
 62
     5
 63
     7
 74
     1
 91
        4
 64
     7
 65
   257
 75
     1
175
     1
 42
1.0
 92
        0
 66
   257
 43
1.0
 76
     1
 77
     6
 78
     2
 67
     7
 79
     5
170
     0
171
     0
290
     0
174
     0
 93
       13
 44
0.0
173
     0
291
     1
 45
0.0
1001
ACAD
1000
AcDbSavedByObjectVersion
1070
     0
  0
VISUALSTYLE
  5
E0C
102
{ACAD_REACTORS
330
DFE
102
}
330
DFE
100
AcDbVisualStyle
  2
Linepattern
 70
    14
 71
     2
 72
     2
 73
     0
 90
        0
 40
-0.6
 41
-30.0
 62
     5
 63
     7
 74
     1
 91
        4
 64
     7
 65
   257
 75
     7
175
     7
 42
1.0
 92
        8
 66
     7
 43
1.0
 76
     1
 77
     6
 78
     2
 67
     7
 79
     5
170
     0
171
     0
290
     0
174
     0
 93
        1
 44
0.0
173
     0
291
     1
 45
0.0
1001
ACAD
1000
AcDbSavedByObjectVersion
1070
     0
  0
VISUALSTYLE
  5
E08
102
{ACAD_REACTORS
330
DFE
102
}
330
DFE
100
AcDbVisualStyle
  2
Realistic
 70
     8
 71
     2
 72
     2
 73
     0
 90
        0
 40
-0.6
 41
-30.0
 62
     5
 63
     7
 74
     1
 91
        0
 64
     7
 65
   257
 75
     1
175
     1
 42
1.0
 92
        8
 66
     8
 43
1.0
 76
     1
 77
     6
 78
     2
 67
     7
 79
     5
170
     0
171
     0
290
     0
174
     0
 93
       13
 44
0.0
173
     0
291
     0
 45
0.0
1001
ACAD
1000
AcDbSavedByObjectVersion
1070
     0
  0
VISUALSTYLE
  5
E0B
102
{ACAD_REACTORS
330
DFE
102
}
330
DFE
100
AcDbVisualStyle
  2
Thicken
 70
    13
 71
     2
 72
     2
 73
     0
 90
        0
 40
-0.6
 41
-30.0
 62
     5
 63
     7
 74
     1
 91
        4
 64
     7
 65
   257
 75
     1
175
     1
 42
1.0
 92
       12
 66
     7
 43
1.0
 76
     1
 77
     6
 78
     2
 67
     7
 79
     5
170
     0
171
     0
290
     0
174
     0
 93
        1
 44
0.0
173
     0
291
     1
 45
0.0
1001
ACAD
1000
AcDbSavedByObjectVersion
1070
     0
  0
DICTIONARYVAR
  5
E75
102
{ACAD_REACTORS
330
E72
102
}
330
E72
100
DictionaryVariables
280
     0
  1
1:1
  0
DICTIONARYVAR
  5
E74
102
{ACAD_REACTORS
330
E72
102
}
330
E72
100
DictionaryVariables
280
     0
  1
STANDARD
  0
DICTIONARYVAR
  5
E73
102
{ACAD_REACTORS
330
E72
102
}
330
E72
100
DictionaryVariables
280
     0
  1
STANDARD
  0
DICTIONARYVAR
  5
E78
102
{ACAD_REACTORS
330
E72
102
}
330
E72
100
DictionaryVariables
280
     0
  1
1
  0
DICTIONARYVAR
  5
E77
102
{ACAD_REACTORS
330
E72
102
}
330
E72
100
DictionaryVariables
280
     0
  1
0
  0
DICTIONARYVAR
  5
E76
102
{ACAD_REACTORS
330
E72
102
}
330
E72
100
DictionaryVariables
280
     0
  1
127
  0
DICTIONARY
  5
E89
330
E37
100
AcDbDictionary
280
     1
281
     1
  3
ACAD_XREC_ROUNDTRIP
360
E8A
  0
DICTIONARY
  5
E8B
330
E38
100
AcDbDictionary
280
     1
281
     1
  3
ACAD_XREC_ROUNDTRIP
360
E8C
  0
DICTIONARY
  5
DEF
330
DEE
100
AcDbDictionary
280
     1
281
     1
  3
ACAD_XREC_ROUNDTRIP
360
E86
  3
BUMPTILE
360
DF1
  3
DIFFUSETILE
360
DF0
  3
OPACITYTILE
360
DF4
  3
REFLECTIONTILE
360
DF3
  3
REFRACTIONTILE
360
DF5
  3
SPECULARTILE
360
DF2
  0
DICTIONARY
  5
DE7
330
DE6
100
AcDbDictionary
280
     1
281
     1
  3
ACAD_XREC_ROUNDTRIP
360
E85
  3
BUMPTILE
360
DE9
  3
DIFFUSETILE
360
DE8
  3
OPACITYTILE
360
DEC
  3
REFLECTIONTILE
360
DEB
  3
REFRACTIONTILE
360
DED
  3
SPECULARTILE
360
DEA
  0
DICTIONARY
  5
DF7
330
DF6
100
AcDbDictionary
280
     1
281
     1
  3
ACAD_XREC_ROUNDTRIP
360
E87
  3
BUMPTILE
360
DF9
  3
DIFFUSETILE
360
DF8
  3
OPACITYTILE
360
DFC
  3
REFLECTIONTILE
360
DFB
  3
REFRACTIONTILE
360
DFD
  3
SPECULARTILE
360
DFA
  0
DICTIONARY
  5
E79
330
E11
100
AcDbDictionary
280
     1
281
     1
  3
ACAD_ROUNDTRIP_2008_TABLESTYLE_CELLSTYLEMAP
360
E7A
  3
ACAD_XREC_ROUNDTRIP
360
E88
  0
XRECORD
  5
E8A
102
{ACAD_REACTORS
330
E89
102
}
330
E89
100
AcDbXrecord
280
     1
102
SHADEPLOT
 70
     0
102
SHADEPLOTRESLEVEL
 70
     2
102
SHADEPLOTCUSTOMDPI
 70
   300
  0
XRECORD
  5
E8C
102
{ACAD_REACTORS
330
E8B
102
}
330
E8B
100
AcDbXrecord
280
     1
102
SHADEPLOT
 70
     0
102
SHADEPLOTRESLEVEL
 70
     2
102
SHADEPLOTCUSTOMDPI
 70
   300
  0
XRECORD
  5
E86
102
{ACAD_REACTORS
330
DEF
102
}
330
DEF
100
AcDbXrecord
280
     1
102
MATERIAL
148
0.0
149
0.0
149
0.0
 93
        0
 94
      127
282
     0
 72
     0
 77
     0
171
     0
175
     0
179
     0
273
     0
  0
XRECORD
  5
DF1
102
{ACAD_REACTORS
330
DEF
102
}
330
DEF
100
AcDbXrecord
280
     1
270
     1
271
     1
  0
XRECORD
  5
DF0
102
{ACAD_REACTORS
330
DEF
102
}
330
DEF
100
AcDbXrecord
280
     1
270
     1
271
     1
  0
XRECORD
  5
DF4
102
{ACAD_REACTORS
330
DEF
102
}
330
DEF
100
AcDbXrecord
280
     1
270
     1
271
     1
  0
XRECORD
  5
DF3
102
{ACAD_REACTORS
330
DEF
102
}
330
DEF
100
AcDbXrecord
280
     1
270
     1
271
     1
  0
XRECORD
  5
DF5
102
{ACAD_REACTORS
330
DEF
102
}
330
DEF
100
AcDbXrecord
280
     1
270
     1
271
     1
  0
XRECORD
  5
DF2
102
{ACAD_REACTORS
330
DEF
102
}
330
DEF
100
AcDbXrecord
280
     1
270
     1
271
     1
  0
XRECORD
  5
E85
102
{ACAD_REACTORS
330
DE7
102
}
330
DE7
100
AcDbXrecord
280
     1
102
MATERIAL
148
0.0
149
0.0
149
0.0
 93
        0
 94
      127
282
     0
 72
     0
 77
     0
171
     0
175
     0
179
     0
273
     0
  0
XRECORD
  5
DE9
102
{ACAD_REACTORS
330
DE7
102
}
330
DE7
100
AcDbXrecord
280
     1
270
     1
271
     1
  0
XRECORD
  5
DE8
102
{ACAD_REACTORS
330
DE7
102
}
330
DE7
100
AcDbXrecord
280
     1
270
     1
271
     1
  0
XRECORD
  5
DEC
102
{ACAD_REACTORS
330
DE7
102
}
330
DE7
100
AcDbXrecord
280
     1
270
     1
271
     1
  0
XRECORD
  5
DEB
102
{ACAD_REACTORS
330
DE7
102
}
330
DE7
100
AcDbXrecord
280
     1
270
     1
271
     1
  0
XRECORD
  5
DED
102
{ACAD_REACTORS
330
DE7
102
}
330
DE7
100
AcDbXrecord
280
     1
270
     1
271
     1
  0
XRECORD
  5
DEA
102
{ACAD_REACTORS
330
DE7
102
}
330
DE7
100
AcDbXrecord
280
     1
270
     1
271
     1
  0
XRECORD
  5
E87
102
{ACAD_REACTORS
330
DF7
102
}
330
DF7
100
AcDbXrecord
280
     1
102
MATERIAL
148
0.0
149
0.0
149
0.0
 93
        0
 94
      127
282
     0
 72
     0
 77
     0
171
     0
175
     0
179
     0
273
     0
  0
XRECORD
  5
DF9
102
{ACAD_REACTORS
330
DF7
102
}
330
DF7
100
AcDbXrecord
280
     1
270
     1
271
     1
  0
XRECORD
  5
DF8
102
{ACAD_REACTORS
330
DF7
102
}
330
DF7
100
AcDbXrecord
280
     1
270
     1
271
     1
  0
XRECORD
  5
DFC
102
{ACAD_REACTORS
330
DF7
102
}
330
DF7
100
AcDbXrecord
280
     1
270
     1
271
     1
  0
XRECORD
  5
DFB
102
{ACAD_REACTORS
330
DF7
102
}
330
DF7
100
AcDbXrecord
280
     1
270
     1
271
     1
  0
XRECORD
  5
DFD
102
{ACAD_REACTORS
330
DF7
102
}
330
DF7
100
AcDbXrecord
280
     1
270
     1
271
     1
  0
XRECORD
  5
DFA
102
{ACAD_REACTORS
330
DF7
102
}
330
DF7
100
AcDbXrecord
280
     1
270
     1
271
     1
  0
CELLSTYLEMAP
  5
E7A
102
{ACAD_REACTORS
330
E79
102
}
330
E79
100
AcDbCellStyleMap
 90
        3
300
CELLSTYLE
  1
TABLEFORMAT_BEGIN
 90
        5
170
     1
 91
        0
 92
    32768
 62
   257
 93
        1
300
CONTENTFORMAT
  1
CONTENTFORMAT_BEGIN
 90
        0
 91
        0
 92
      512
 93
        0
300

 40
0.0
140
1.0
 94
        5
 62
     0
340
11
144
0.25
309
CONTENTFORMAT_END
171
     0
 94
        0
309
TABLEFORMAT_END
  1
CELLSTYLE_BEGIN
 90
        1
 91
        1
300
_TITLE
309
CELLSTYLE_END
300
CELLSTYLE
  1
TABLEFORMAT_BEGIN
 90
        5
170
     1
 91
        0
 92
        0
 62
   257
 93
        1
300
CONTENTFORMAT
  1
CONTENTFORMAT_BEGIN
 90
        0
 91
        0
 92
      512
 93
        0
300

 40
0.0
140
1.0
 94
        5
 62
     0
340
11
144
0.18
309
CONTENTFORMAT_END
171
     0
 94
        0
309
TABLEFORMAT_END
  1
CELLSTYLE_BEGIN
 90
        2
 91
        1
300
_HEADER
309
CELLSTYLE_END
300
CELLSTYLE
  1
TABLEFORMAT_BEGIN
 90
        5
170
     1
 91
        0
 92
        0
 62
   257
 93
        1
300
CONTENTFORMAT
  1
CONTENTFORMAT_BEGIN
 90
        0
 91
        0
 92
      512
 93
        0
300

 40
0.0
140
1.0
 94
        2
 62
     0
340
11
144
0.18
309
CONTENTFORMAT_END
171
     0
 94
        0
309
TABLEFORMAT_END
  1
CELLSTYLE_BEGIN
 90
        3
 91
        2
300
_DATA
309
CELLSTYLE_END
  0
XRECORD
  5
E88
102
{ACAD_REACTORS
330
E79
102
}
330
E79
100
AcDbXrecord
280
     1
102
ACAD_ROUNDTRIP_PRE2007_TABLESTYLE
 90
      512
 91
        0
  1

 92
      512
 93
        0
  2

 94
      512
 95
        0
  3

  0
ENDSEC
  0
EOF
