  0
SECTION
  2
HEADER
  9
$ACADVER
  1
AC1015
  9
$ACADMAINTVER
 70
    20
  9
$DWGCODEPAGE
  3
ANSI_932
  9
$INSBASE
 10
0.0
 20
0.0
 30
0.0
  9
$EXTMIN
 10
35.27578399092567
 20
9.703953762849778
 30
-0.0015258207003583
  9
$EXTMAX
 10
579.6647991949819
 20
947.2071026358362
 30
0.0000000349246037
  9
$LIMMIN
 10
0.0
 20
0.0
  9
$LIMMAX
 10
640.7521283722153
 20
1072.442073221069
  9
$ORTHOMODE
 70
     0
  9
$REGENMODE
 70
     1
  9
$FILLMODE
 70
     1
  9
$QTEXTMODE
 70
     0
  9
$MIRRTEXT
 70
     1
  9
$LTSCALE
 40
1.0
  9
$ATTMODE
 70
     1
  9
$TEXTSIZE
 40
3.5
  9
$TRACEWID
 40
1.0
  9
$TEXTSTYLE
  7
Standard
  9
$CLAYER
  8
0
  9
$CELTYPE
  6
ByLayer
  9
$CECOLOR
 62
   256
  9
$CELTSCALE
 40
1.0
  9
$DISPSILH
 70
     0
  9
$DIMSCALE
 40
5.0
  9
$DIMASZ
 40
2.5
  9
$DIMEXO
 40
0.5
  9
$DIMDLI
 40
8.0
  9
$DIMRND
 40
0.0
  9
$DIMDLE
 40
0.0
  9
$DIMEXE
 40
1.25
  9
$DIMTP
 40
0.0
  9
$DIMTM
 40
0.0
  9
$DIMTXT
 40
2.5
  9
$DIMCEN
 40
-2.5
  9
$DIMTSZ
 40
0.0
  9
$DIMTOL
 70
     0
  9
$DIMLIM
 70
     0
  9
$DIMTIH
 70
     0
  9
$DIMTOH
 70
     0
  9
$DIMSE1
 70
     0
  9
$DIMSE2
 70
     0
  9
$DIMTAD
 70
     1
  9
$DIMZIN
 70
     8
  9
$DIMBLK
  1

  9
$DIMASO
 70
     1
  9
$DIMSHO
 70
     1
  9
$DIMPOST
  1

  9
$DIMAPOST
  1

  9
$DIMALT
 70
     0
  9
$DIMALTD
 70
     3
  9
$DIMALTF
 40
0.03937007874016
  9
$DIMLFAC
 40
1.0
  9
$DIMTOFL
 70
     1
  9
$DIMTVP
 40
0.0
  9
$DIMTIX
 70
     0
  9
$DIMSOXD
 70
     1
  9
$DIMSAH
 70
     0
  9
$DIMBLK1
  1

  9
$DIMBLK2
  1

  9
$DIMSTYLE
  2
My DIM1
  9
$DIMCLRD
 70
     0
  9
$DIMCLRE
 70
     0
  9
$DIMCLRT
 70
     0
  9
$DIMTFAC
 40
1.0
  9
$DIMGAP
 40
0.625
  9
$DIMJUST
 70
     0
  9
$DIMSD1
 70
     0
  9
$DIMSD2
 70
     0
  9
$DIMTOLJ
 70
     0
  9
$DIMTZIN
 70
     8
  9
$DIMALTZ
 70
     0
  9
$DIMALTTZ
 70
     0
  9
$DIMUPT
 70
     0
  9
$DIMDEC
 70
     1
  9
$DIMTDEC
 70
     1
  9
$DIMALTU
 70
     2
  9
$DIMALTTD
 70
     3
  9
$DIMTXSTY
  7
Standard
  9
$DIMAUNIT
 70
     0
  9
$DIMADEC
 70
     0
  9
$DIMALTRND
 40
0.0
  9
$DIMAZIN
 70
     0
  9
$DIMDSEP
 70
    46
  9
$DIMATFIT
 70
     3
  9
$DIMFRAC
 70
     0
  9
$DIMLDRBLK
  1

  9
$DIMLUNIT
 70
     2
  9
$DIMLWD
 70
    -2
  9
$DIMLWE
 70
    -2
  9
$DIMTMOVE
 70
     0
  9
$LUNITS
 70
     2
  9
$LUPREC
 70
     3
  9
$SKETCHINC
 40
1.0
  9
$FILLETRAD
 40
10.0
  9
$AUNITS
 70
     0
  9
$AUPREC
 70
     3
  9
$MENU
  1
.
  9
$ELEVATION
 40
0.0
  9
$PELEVATION
 40
0.0
  9
$THICKNESS
 40
0.0
  9
$LIMCHECK
 70
     0
  9
$CHAMFERA
 40
10.0
  9
$CHAMFERB
 40
10.0
  9
$CHAMFERC
 40
20.0
  9
$CHAMFERD
 40
0.0
  9
$SKPOLY
 70
     0
  9
$TDCREATE
 40
2451958.815310995
  9
$TDUCREATE
 40
2451958.440310995
  9
$TDUPDATE
 40
2455000.569883912
  9
$TDUUPDATE
 40
2455000.194883912
  9
$TDINDWG
 40
0.2659171412
  9
$TDUSRTIMER
 40
0.2659171412
  9
$USRTIMER
 70
     1
  9
$ANGBASE
 50
0.0
  9
$ANGDIR
 70
     0
  9
$PDMODE
 70
     0
  9
$PDSIZE
 40
0.0
  9
$PLINEWID
 40
0.0
  9
$SPLFRAME
 70
     0
  9
$SPLINETYPE
 70
     6
  9
$SPLINESEGS
 70
     8
  9
$HANDSEED
  5
D86
  9
$SURFTAB1
 70
     6
  9
$SURFTAB2
 70
     6
  9
$SURFTYPE
 70
     6
  9
$SURFU
 70
     6
  9
$SURFV
 70
     6
  9
$UCSBASE
  2

  9
$UCSNAME
  2

  9
$UCSORG
 10
0.0
 20
0.0
 30
0.0
  9
$UCSXDIR
 10
1.0
 20
0.0
 30
0.0
  9
$UCSYDIR
 10
0.0
 20
1.0
 30
0.0
  9
$UCSORTHOREF
  2

  9
$UCSORTHOVIEW
 70
     0
  9
$UCSORGTOP
 10
0.0
 20
0.0
 30
0.0
  9
$UCSORGBOTTOM
 10
0.0
 20
0.0
 30
0.0
  9
$UCSORGLEFT
 10
0.0
 20
0.0
 30
0.0
  9
$UCSORGRIGHT
 10
0.0
 20
0.0
 30
0.0
  9
$UCSORGFRONT
 10
0.0
 20
0.0
 30
0.0
  9
$UCSORGBACK
 10
0.0
 20
0.0
 30
0.0
  9
$PUCSBASE
  2

  9
$PUCSNAME
  2

  9
$PUCSORG
 10
0.0
 20
0.0
 30
0.0
  9
$PUCSXDIR
 10
1.0
 20
0.0
 30
0.0
  9
$PUCSYDIR
 10
0.0
 20
1.0
 30
0.0
  9
$PUCSORTHOREF
  2

  9
$PUCSORTHOVIEW
 70
     0
  9
$PUCSORGTOP
 10
0.0
 20
0.0
 30
0.0
  9
$PUCSORGBOTTOM
 10
0.0
 20
0.0
 30
0.0
  9
$PUCSORGLEFT
 10
0.0
 20
0.0
 30
0.0
  9
$PUCSORGRIGHT
 10
0.0
 20
0.0
 30
0.0
  9
$PUCSORGFRONT
 10
0.0
 20
0.0
 30
0.0
  9
$PUCSORGBACK
 10
0.0
 20
0.0
 30
0.0
  9
$USERI1
 70
     0
  9
$USERI2
 70
     0
  9
$USERI3
 70
     0
  9
$USERI4
 70
     0
  9
$USERI5
 70
     0
  9
$USERR1
 40
0.0
  9
$USERR2
 40
0.0
  9
$USERR3
 40
0.0
  9
$USERR4
 40
0.0
  9
$USERR5
 40
0.0
  9
$WORLDVIEW
 70
     1
  9
$SHADEDGE
 70
     3
  9
$SHADEDIF
 70
    70
  9
$TILEMODE
 70
     1
  9
$MAXACTVP
 70
    64
  9
$PINSBASE
 10
0.0
 20
0.0
 30
0.0
  9
$PLIMCHECK
 70
     0
  9
$PEXTMIN
 10
7.968561345690659
 20
7.642823507337084
 30
0.0
  9
$PEXTMAX
 10
281.1301288352414
 20
405.2166287234621
 30
0.0
  9
$PLIMMIN
 10
-5.027082920074462
 20
-5.027085781097412
  9
$PLIMMAX
 10
291.8989119529724
 20
414.9195694923401
  9
$UNITMODE
 70
     0
  9
$VISRETAIN
 70
     1
  9
$PLINEGEN
 70
     0
  9
$PSLTSCALE
 70
     1
  9
$TREEDEPTH
 70
  3020
  9
$CMLSTYLE
  2
Standard
  9
$CMLJUST
 70
     0
  9
$CMLSCALE
 40
20.0
  9
$PROXYGRAPHICS
 70
     1
  9
$MEASUREMENT
 70
     1
  9
$CELWEIGHT
370
    -1
  9
$ENDCAPS
280
     0
  9
$JOINSTYLE
280
     0
  9
$LWDISPLAY
290
     0
  9
$INSUNITS
 70
     4
  9
$HYPERLINKBASE
  1

  9
$STYLESHEET
  1

  9
$XEDIT
290
     1
  9
$CEPSNTYPE
380
     0
  9
$PSTYLEMODE
290
     1
  9
$FINGERPRINTGUID
  2
{FDEAD578-A652-11D2-9A35-0060089B3A3F}
  9
$VERSIONGUID
  2
{DC13E244-6B34-41ED-BABB-3706075EFB27}
  9
$EXTNAMES
290
     1
  9
$PSVPSCALE
 40
0.0
  9
$OLESTARTUP
290
     0
  0
ENDSEC
  0
SECTION
  2
CLASSES
  0
CLASS
  1
ACDBDICTIONARYWDFLT
  2
AcDbDictionaryWithDefault
  3
ObjectDBX Classes
 90
        0
280
     0
281
     0
  0
CLASS
  1
ACDBPLACEHOLDER
  2
AcDbPlaceHolder
  3
ObjectDBX Classes
 90
        0
280
     0
281
     0
  0
CLASS
  1
LAYOUT
  2
AcDbLayout
  3
ObjectDBX Classes
 90
        0
280
     0
281
     0
  0
CLASS
  1
DICTIONARYVAR
  2
AcDbDictionaryVar
  3
ObjectDBX Classes
 90
        0
280
     0
281
     0
  0
CLASS
  1
MATERIAL
  2
AcDbMaterial
  3
ObjectDBX Classes
 90
     1153
280
     0
281
     0
  0
CLASS
  1
VISUALSTYLE
  2
AcDbVisualStyle
  3
ObjectDBX Classes
 90
     4095
280
     0
281
     0
  0
CLASS
  1
TABLESTYLE
  2
AcDbTableStyle
  3
ObjectDBX Classes
 90
     4095
280
     0
281
     0
  0
CLASS
  1
SCALE
  2
AcDbScale
  3
ObjectDBX Classes
 90
     1153
280
     0
281
     0
  0
CLASS
  1
MLEADERSTYLE
  2
AcDbMLeaderStyle
  3
ACDB_MLEADERSTYLE_CLASS
 90
     4095
280
     0
281
     0
  0
CLASS
  1
CELLSTYLEMAP
  2
AcDbCellStyleMap
  3
ObjectDBX Classes
 90
     1152
280
     0
281
     0
  0
CLASS
  1
SOLID_BACKGROUND
  2
AcDbSolidBackground
  3
SCENEOE
 90
     4095
280
     0
281
     0
  0
CLASS
  1
NPOCOLLECTION
  2
AcDbImpNonPersistentObjectsCollection
  3
ObjectDBX Classes
 90
     1153
280
     0
281
     0
  0
CLASS
  1
SORTENTSTABLE
  2
AcDbSortentsTable
  3
ObjectDBX Classes
 90
        0
280
     0
281
     0
  0
CLASS
  1
MULTILEADER
  2
AcDbMLeader
  3
ACDB_MLEADER_CLASS
 90
     1025
280
     0
281
     1
  0
ENDSEC
  0
SECTION
  2
TABLES
  0
TABLE
  2
VPORT
  5
8
330
0
100
AcDbSymbolTable
 70
     1
  0
VPORT
  5
B03
330
8
100
AcDbSymbolTableRecord
100
AcDbViewportTableRecord
  2
*Active
 70
     0
 10
0.0
 20
0.0
 11
1.0
 21
1.0
 12
320.3760641861077
 22
536.2210366105346
 13
0.0
 23
0.0
 14
1.0
 24
1.0
 15
10.0
 25
10.0
 16
0.0
 26
0.0
 36
1.0
 17
0.0
 27
0.0
 37
0.0
 40
1083.184397827624
 41
1.784280936454849
 42
50.0
 43
0.0
 44
0.0
 50
0.0
 51
0.0
 71
     0
 72
   100
 73
     1
 74
     3
 75
     0
 76
     0
 77
     0
 78
     1
281
     0
 65
     1
110
0.0
120
0.0
130
0.0
111
1.0
121
0.0
131
0.0
112
0.0
122
1.0
132
0.0
 79
     0
146
0.0
  0
ENDTAB
  0
TABLE
  2
LTYPE
  5
5
330
0
100
AcDbSymbolTable
 70
     4
  0
LTYPE
  5
14
330
5
100
AcDbSymbolTableRecord
100
AcDbLinetypeTableRecord
  2
ByBlock
 70
     0
  3

 72
    65
 73
     0
 40
0.0
  0
LTYPE
  5
15
330
5
100
AcDbSymbolTableRecord
100
AcDbLinetypeTableRecord
  2
ByLayer
 70
     0
  3

 72
    65
 73
     0
 40
0.0
  0
LTYPE
  5
16
330
5
100
AcDbSymbolTableRecord
100
AcDbLinetypeTableRecord
  2
Continuous
 70
     0
  3
Solid line
 72
    65
 73
     0
 40
0.0
  0
LTYPE
  5
47
330
5
100
AcDbSymbolTableRecord
100
AcDbLinetypeTableRecord
  2
HIDDEN
 70
     0
  3
Hidden __ __ __ __ __ __ __ __ __ __ __ __ __ _
 72
    65
 73
     2
 40
9.524999999999998
 49
6.349999999999999
 74
     0
 49
-3.174999999999999
 74
     0
  0
LTYPE
  5
48
330
5
100
AcDbSymbolTableRecord
100
AcDbLinetypeTableRecord
  2
CENTER
 70
     0
  3
Center ____ _ ____ _ ____ _ ____ _ ____ _ ____
 72
    65
 73
     4
 40
50.8
 49
31.75
 74
     0
 49
-6.349999999999999
 74
     0
 49
6.349999999999999
 74
     0
 49
-6.349999999999999
 74
     0
  0
ENDTAB
  0
TABLE
  2
LAYER
  5
2
102
{ACAD_XDICTIONARY
360
B72
102
}
330
0
100
AcDbSymbolTable
 70
    11
  0
LAYER
  5
10
102
{ACAD_XDICTIONARY
360
D44
102
}
330
2
100
AcDbSymbolTableRecord
100
AcDbLayerTableRecord
  2
0
 70
     0
 62
     7
  6
Continuous
370
    -3
390
F
  0
LAYER
  5
49
102
{ACAD_XDICTIONARY
360
D46
102
}
330
2
100
AcDbSymbolTableRecord
100
AcDbLayerTableRecord
  2
外形線
 70
     0
 62
     5
  6
Continuous
370
    35
390
F
  0
LAYER
  5
4A
102
{ACAD_XDICTIONARY
360
D48
102
}
330
2
100
AcDbSymbolTableRecord
100
AcDbLayerTableRecord
  2
隠線
 70
     0
 62
     8
  6
HIDDEN
370
    18
390
F
  0
LAYER
  5
4B
102
{ACAD_XDICTIONARY
360
D4A
102
}
330
2
100
AcDbSymbolTableRecord
100
AcDbLayerTableRecord
  2
センター線
 70
     0
 62
     4
  6
CENTER
370
    18
390
F
  0
LAYER
  5
4C
102
{ACAD_XDICTIONARY
360
D4C
102
}
330
2
100
AcDbSymbolTableRecord
100
AcDbLayerTableRecord
  2
寸法線
 70
     0
 62
     1
  6
Continuous
370
    18
390
F
  0
LAYER
  5
4D
102
{ACAD_XDICTIONARY
360
D4E
102
}
330
2
100
AcDbSymbolTableRecord
100
AcDbLayerTableRecord
  2
補助線
 70
     0
 62
     2
  6
Continuous
290
     0
370
    18
390
F
  0
LAYER
  5
6B
102
{ACAD_XDICTIONARY
360
D50
102
}
330
2
100
AcDbSymbolTableRecord
100
AcDbLayerTableRecord
  2
太実線
 70
     0
 62
   202
  6
Continuous
370
    70
390
F
  0
LAYER
  5
71
102
{ACAD_XDICTIONARY
360
D52
102
}
330
2
100
AcDbSymbolTableRecord
100
AcDbLayerTableRecord
  2
中実線
 70
     0
 62
     4
  6
Continuous
370
     5
390
F
  0
LAYER
  5
26A
102
{ACAD_XDICTIONARY
360
D54
102
}
330
2
100
AcDbSymbolTableRecord
100
AcDbLayerTableRecord
  2
ASHADE
 70
     4
 62
     7
  6
Continuous
370
    -3
390
F
  0
LAYER
  5
4AD
102
{ACAD_XDICTIONARY
360
D56
102
}
330
2
100
AcDbSymbolTableRecord
100
AcDbLayerTableRecord
  2
外形細線
 70
     0
 62
     6
  6
Continuous
370
    18
390
F
  0
LAYER
  5
4AE
330
2
100
AcDbSymbolTableRecord
100
AcDbLayerTableRecord
  2
Defpoints
 70
     0
 62
     7
  6
Continuous
290
     0
370
    -3
390
F
  0
ENDTAB
  0
TABLE
  2
STYLE
  5
3
330
0
100
AcDbSymbolTable
 70
     7
  0
STYLE
  5
11
330
3
100
AcDbSymbolTableRecord
100
AcDbTextStyleTableRecord
  2
Standard
 70
     0
 40
0.0
 41
1.0
 50
0.0
 71
     0
 42
3.5
  3
isocp.shx
  4
bigfont.shx
  0
STYLE
  5
46
330
3
100
AcDbSymbolTableRecord
100
AcDbTextStyleTableRecord
  2

 70
     1
 40
0.0
 41
1.0
 50
0.0
 71
     0
 42
2.5
  3
ltypeshp.shx
  4

  0
STYLE
  5
79
330
3
100
AcDbSymbolTableRecord
100
AcDbTextStyleTableRecord
  2
Demention
 70
     0
 40
0.0
 41
1.0
 50
15.0
 71
     0
 42
2.5
  3
isocp.shx
  4
bigfont.shx
  0
STYLE
  5
266
330
3
100
AcDbSymbolTableRecord
100
AcDbTextStyleTableRecord
  2
ASHADE
 70
     0
 40
0.2
 41
1.0
 50
0.0
 71
     0
 42
2.5
  3
txt.shx
  4
bigfont.shx
  0
ENDTAB
  0
TABLE
  2
VIEW
  5
6
330
0
100
AcDbSymbolTable
 70
     8
  0
ENDTAB
  0
TABLE
  2
UCS
  5
7
330
0
100
AcDbSymbolTable
 70
     0
  0
ENDTAB
  0
TABLE
  2
APPID
  5
9
330
0
100
AcDbSymbolTable
 70
    10
  0
APPID
  5
12
330
9
100
AcDbSymbolTableRecord
100
AcDbRegAppTableRecord
  2
ACAD
 70
     0
  0
APPID
  5
268
330
9
100
AcDbSymbolTableRecord
100
AcDbRegAppTableRecord
  2
AVE_RENDER
 70
     0
  0
APPID
  5
269
330
9
100
AcDbSymbolTableRecord
100
AcDbRegAppTableRecord
  2
AVE_ENTITY_MATERIAL
 70
     0
  0
APPID
  5
276
330
9
100
AcDbSymbolTableRecord
100
AcDbRegAppTableRecord
  2
AVE_FINISH
 70
     0
  0
APPID
  5
277
330
9
100
AcDbSymbolTableRecord
100
AcDbRegAppTableRecord
  2
AVE_MATERIAL
 70
     0
  0
APPID
  5
278
330
9
100
AcDbSymbolTableRecord
100
AcDbRegAppTableRecord
  2
AVE_GLOBAL
 70
     0
  0
APPID
  5
B56
330
9
100
AcDbSymbolTableRecord
100
AcDbRegAppTableRecord
  2
ACAD_MLEADERVER
 70
     0
  0
APPID
  5
B61
330
9
100
AcDbSymbolTableRecord
100
AcDbRegAppTableRecord
  2
ACAD_PSEXT
 70
     0
  0
APPID
  5
C84
330
9
100
AcDbSymbolTableRecord
100
AcDbRegAppTableRecord
  2
ACAD_DSTYLE_DIMJAG
 70
     0
  0
APPID
  5
C85
330
9
100
AcDbSymbolTableRecord
100
AcDbRegAppTableRecord
  2
ACAD_DSTYLE_DIMTALN
 70
     0
  0
ENDTAB
  0
TABLE
  2
DIMSTYLE
  5
A
330
0
100
AcDbSymbolTable
 70
     9
100
AcDbDimStyleTable
 71
     3
340
27
340
286
340
285
  0
DIMSTYLE
105
27
102
{ACAD_REACTORS
330
C75
330
C8F
330
C9C
330
CA9
330
CB6
330
CC3
330
CE4
330
CD6
102
}
330
A
100
AcDbSymbolTableRecord
100
AcDbDimStyleTableRecord
  2
My DIM1
 70
     0
 40
5.0
 41
2.5
 42
0.5
 43
8.0
 44
1.25
 73
     0
 74
     0
 77
     1
 78
     8
140
2.5
141
-2.5
143
0.03937007874016
147
0.625
171
     3
172
     1
175
     1
271
     1
272
     1
274
     3
283
     0
284
     8
340
11
1001
ACAD_DSTYLE_DIMJAG
1070
   388
1040
1.5
1001
ACAD_DSTYLE_DIMTALN
1070
   392
1070
     0
  0
DIMSTYLE
105
285
330
A
100
AcDbSymbolTableRecord
100
AcDbDimStyleTableRecord
  2
My DIM1$4
 70
     0
 40
5.0
 41
2.5
 42
0.5
 43
8.0
 44
1.25
 73
     0
 74
     0
 77
     1
 78
     8
140
2.5
141
-2.5
143
0.03937007874016
147
0.625
171
     3
172
     1
175
     1
271
     1
272
     1
274
     3
283
     0
284
     8
289
     0
340
11
  0
DIMSTYLE
105
286
330
A
100
AcDbSymbolTableRecord
100
AcDbDimStyleTableRecord
  2
My DIM1$3
 70
     0
 40
5.0
 41
2.5
 42
0.5
 43
8.0
 44
1.25
 73
     0
 74
     0
 77
     1
 78
     8
140
2.5
141
-2.5
143
0.03937007874016
147
0.625
171
     3
172
     1
175
     1
271
     1
272
     1
274
     3
283
     0
284
     8
289
     0
340
11
  0
DIMSTYLE
105
4AF
102
{ACAD_REACTORS
330
4C9
330
4C3
330
4D6
330
4D7
330
4CF
330
4C0
330
4BF
330
4DE
330
4BE
330
4C1
330
4C2
330
4B9
330
4B2
330
4ED
330
4B1
102
}
330
A
100
AcDbSymbolTableRecord
100
AcDbDimStyleTableRecord
  2
ISO-25
 70
     0
 41
2.5
 42
0.625
 43
3.75
 44
1.25
 73
     0
 74
     0
 77
     1
 78
     8
140
2.5
141
2.5
143
0.03937007874016
147
0.625
171
     3
172
     1
271
     2
272
     2
274
     3
278
    44
283
     0
284
     8
340
11
  0
DIMSTYLE
105
80B
330
A
100
AcDbSymbolTableRecord
100
AcDbDimStyleTableRecord
  2
STANDARD
 70
     0
340
11
  0
ENDTAB
  0
TABLE
  2
BLOCK_RECORD
  5
1
330
0
100
AcDbSymbolTable
 70
    46
  0
BLOCK_RECORD
  5
1F
102
{ACAD_XDICTIONARY
360
CD1
102
}
330
1
100
AcDbSymbolTableRecord
100
AcDbBlockTableRecord
  2
*Model_Space
340
22
  0
BLOCK_RECORD
  5
C3A
330
1
100
AcDbSymbolTableRecord
100
AcDbBlockTableRecord
  2
*Paper_Space
340
C3B
  0
BLOCK_RECORD
  5
98
330
1
100
AcDbSymbolTableRecord
100
AcDbBlockTableRecord
  2
A$C00D70D3F
340
0
  0
BLOCK_RECORD
  5
1AB
330
1
100
AcDbSymbolTableRecord
100
AcDbBlockTableRecord
  2
A$C42463F41
340
0
  0
BLOCK_RECORD
  5
26B
330
1
100
AcDbSymbolTableRecord
100
AcDbBlockTableRecord
  2
AVE_RENDER
340
0
102
{BLKREFS
331
26E
331
26F
331
270
331
271
331
272
331
273
331
274
331
275
102
}
  0
BLOCK_RECORD
  5
279
330
1
100
AcDbSymbolTableRecord
100
AcDbBlockTableRecord
  2
AVE_GLOBAL
340
0
102
{BLKREFS
331
27C
102
}
  0
BLOCK_RECORD
  5
3F8
330
1
100
AcDbSymbolTableRecord
100
AcDbBlockTableRecord
  2
*D4
340
0
  0
BLOCK_RECORD
  5
404
330
1
100
AcDbSymbolTableRecord
100
AcDbBlockTableRecord
  2
*D5
340
0
  0
BLOCK_RECORD
  5
410
330
1
100
AcDbSymbolTableRecord
100
AcDbBlockTableRecord
  2
*D6
340
0
  0
BLOCK_RECORD
  5
41C
330
1
100
AcDbSymbolTableRecord
100
AcDbBlockTableRecord
  2
*D7
340
0
  0
BLOCK_RECORD
  5
428
330
1
100
AcDbSymbolTableRecord
100
AcDbBlockTableRecord
  2
*D8
340
0
  0
BLOCK_RECORD
  5
434
330
1
100
AcDbSymbolTableRecord
100
AcDbBlockTableRecord
  2
*D9
340
0
  0
BLOCK_RECORD
  5
440
330
1
100
AcDbSymbolTableRecord
100
AcDbBlockTableRecord
  2
*D10
340
0
  0
BLOCK_RECORD
  5
44C
330
1
100
AcDbSymbolTableRecord
100
AcDbBlockTableRecord
  2
*D11
340
0
  0
BLOCK_RECORD
  5
458
330
1
100
AcDbSymbolTableRecord
100
AcDbBlockTableRecord
  2
*D12
340
0
  0
BLOCK_RECORD
  5
464
330
1
100
AcDbSymbolTableRecord
100
AcDbBlockTableRecord
  2
*D13
340
0
  0
BLOCK_RECORD
  5
471
330
1
100
AcDbSymbolTableRecord
100
AcDbBlockTableRecord
  2
*D14
340
0
  0
BLOCK_RECORD
  5
47D
330
1
100
AcDbSymbolTableRecord
100
AcDbBlockTableRecord
  2
*D15
340
0
  0
BLOCK_RECORD
  5
489
330
1
100
AcDbSymbolTableRecord
100
AcDbBlockTableRecord
  2
*D16
340
0
  0
BLOCK_RECORD
  5
495
330
1
100
AcDbSymbolTableRecord
100
AcDbBlockTableRecord
  2
*D17
340
0
  0
BLOCK_RECORD
  5
4A1
330
1
100
AcDbSymbolTableRecord
100
AcDbBlockTableRecord
  2
*D18
340
0
  0
BLOCK_RECORD
  5
4B0
330
1
100
AcDbSymbolTableRecord
100
AcDbBlockTableRecord
  2
A$C318A2D0B
340
0
  0
BLOCK_RECORD
  5
7A7
330
1
100
AcDbSymbolTableRecord
100
AcDbBlockTableRecord
  2
A$C593659E6
340
0
  0
BLOCK_RECORD
  5
7B4
330
1
100
AcDbSymbolTableRecord
100
AcDbBlockTableRecord
  2
sws08
340
0
102
{BLKREFS
331
7BD
331
7BE
331
A9A
331
AB7
331
AC3
331
ACD
102
}
  0
BLOCK_RECORD
  5
7BF
330
1
100
AcDbSymbolTableRecord
100
AcDbBlockTableRecord
  2
hb20812
340
0
  0
BLOCK_RECORD
  5
7DA
330
1
100
AcDbSymbolTableRecord
100
AcDbBlockTableRecord
  2
n12s08
340
0
102
{BLKREFS
331
7E6
331
7E7
102
}
  0
BLOCK_RECORD
  5
96F
330
1
100
AcDbSymbolTableRecord
100
AcDbBlockTableRecord
  2
tapf08n
340
0
102
{BLKREFS
331
9AE
331
9B1
331
9B2
331
9B4
102
}
  0
BLOCK_RECORD
  5
9C1
330
1
100
AcDbSymbolTableRecord
100
AcDbBlockTableRecord
  2
tapf04
340
0
102
{BLKREFS
331
9EF
331
A03
102
}
  0
BLOCK_RECORD
  5
9C8
330
1
100
AcDbSymbolTableRecord
100
AcDbBlockTableRecord
  2
tapf03
340
0
  0
BLOCK_RECORD
  5
A9B
330
1
100
AcDbSymbolTableRecord
100
AcDbBlockTableRecord
  2
n13s08
340
0
102
{BLKREFS
331
AA9
331
AB6
331
AC2
331
ACE
102
}
  0
BLOCK_RECORD
  5
B8B
330
1
100
AcDbSymbolTableRecord
100
AcDbBlockTableRecord
  2
crfn04
340
0
102
{BLKREFS
331
BA3
331
BA4
331
BA5
331
BA6
102
}
  0
BLOCK_RECORD
  5
B97
330
1
100
AcDbSymbolTableRecord
100
AcDbBlockTableRecord
  2
crsm0400
340
0
102
{BLKREFS
331
BB4
331
BB5
331
BBA
331
BBB
331
BDA
331
BDB
331
C22
331
C23
102
}
  0
BLOCK_RECORD
  5
BE7
330
1
100
AcDbSymbolTableRecord
100
AcDbBlockTableRecord
  2
*D32
340
0
  0
BLOCK_RECORD
  5
BF4
330
1
100
AcDbSymbolTableRecord
100
AcDbBlockTableRecord
  2
*D33
340
0
  0
BLOCK_RECORD
  5
C76
330
1
100
AcDbSymbolTableRecord
100
AcDbBlockTableRecord
  2
*D38
340
0
  0
BLOCK_RECORD
  5
C90
330
1
100
AcDbSymbolTableRecord
100
AcDbBlockTableRecord
  2
*D39
340
0
  0
BLOCK_RECORD
  5
C9D
330
1
100
AcDbSymbolTableRecord
100
AcDbBlockTableRecord
  2
*D40
340
0
  0
BLOCK_RECORD
  5
CAA
330
1
100
AcDbSymbolTableRecord
100
AcDbBlockTableRecord
  2
*D41
340
0
  0
BLOCK_RECORD
  5
CB7
330
1
100
AcDbSymbolTableRecord
100
AcDbBlockTableRecord
  2
*D42
340
0
  0
BLOCK_RECORD
  5
CC4
330
1
100
AcDbSymbolTableRecord
100
AcDbBlockTableRecord
  2
*D43
340
0
  0
BLOCK_RECORD
  5
CD7
330
1
100
AcDbSymbolTableRecord
100
AcDbBlockTableRecord
  2
*D44
340
0
  0
BLOCK_RECORD
  5
CE5
330
1
100
AcDbSymbolTableRecord
100
AcDbBlockTableRecord
  2
*D45
340
0
  0
ENDTAB
  0
ENDSEC
  0
SECTION
  2
BLOCKS
  0
BLOCK
  5
20
330
1F
100
AcDbEntity
  8
0
100
AcDbBlockBegin
  2
*Model_Space
 70
     0
 10
0.0
 20
0.0
 30
0.0
  3
*Model_Space
  1

  0
ENDBLK
  5
21
330
1F
100
AcDbEntity
  8
0
100
AcDbBlockEnd
  0
BLOCK
  5
C3C
330
C3A
100
AcDbEntity
 67
     1
  8
0
100
AcDbBlockBegin
  2
*Paper_Space
 70
     0
 10
0.0
 20
0.0
 30
0.0
  3
*Paper_Space
  1

  0
ENDBLK
  5
C3D
330
C3A
100
AcDbEntity
 67
     1
  8
0
100
AcDbBlockEnd
  0
BLOCK
  5
9A
330
98
100
AcDbEntity
  8
0
100
AcDbBlockBegin
  2
A$C00D70D3F
 70
     0
 10
0.0
 20
0.0
 30
0.0
  3
A$C00D70D3F
  1

  0
MTEXT
  5
99
330
98
100
AcDbEntity
  8
太実線
100
AcDbMText
 10
-0.0000008137901659
 20
2.500000122029746
 30
0.0
 40
2.5
 41
61.0
 71
     1
 72
     5
  1
京都自動機器株式会社
 73
     1
 44
1.0
1001
ACAD
1000
MTEXTBEGIN
1070
    73
1070
     1
1070
    44
1040
1.0
1070
    74
1070
     0
1000
MTEXTEND
  0
ENDBLK
  5
9B
330
98
100
AcDbEntity
  8
0
100
AcDbBlockEnd
  0
BLOCK
  5
1BD
330
1AB
100
AcDbEntity
  8
0
100
AcDbBlockBegin
  2
A$C42463F41
 70
     0
 10
0.0
 20
0.0
 30
0.0
  3
A$C42463F41
  1

  0
LINE
  5
1AC
330
1AB
100
AcDbEntity
  8
太実線
100
AcDbLine
 10
-0.0000004967369023
 20
40.00000022370682
 30
0.0
 11
119.9999995032631
 21
40.00000022370682
 31
0.0
  0
LINE
  5
1AD
330
1AB
100
AcDbEntity
  8
太実線
100
AcDbLine
 10
119.9999995032631
 20
30.00000022370682
 30
0.0
 11
-0.0000004967369023
 21
30.00000022370682
 31
0.0
  0
LINE
  5
1AE
330
1AB
100
AcDbEntity
  8
太実線
100
AcDbLine
 10
-0.0000004967369023
 20
20.00000022370682
 30
0.0
 11
119.9999995032631
 21
20.00000022370682
 31
0.0
  0
LINE
  5
1AF
330
1AB
100
AcDbEntity
  8
太実線
100
AcDbLine
 10
-0.0000004967369023
 20
10.00000022370682
 30
0.0
 11
119.9999995032631
 21
10.00000022370682
 31
0.0
  0
LINE
  5
1B0
330
1AB
100
AcDbEntity
  8
太実線
100
AcDbLine
 10
-0.0000004967369023
 20
0.0000002237068202
 30
0.0
 11
119.9999995032631
 21
0.0000002237068202
 31
0.0
  0
LINE
  5
1B1
330
1AB
100
AcDbEntity
  8
太実線
100
AcDbLine
 10
-0.0000004967369023
 20
40.00000022370682
 30
0.0
 11
-0.0000004967369023
 21
0.0000002237068202
 31
0.0
  0
MTEXT
  5
1B2
330
1AB
100
AcDbEntity
  8
太実線
100
AcDbMText
 10
-0.0000004967369023
 20
20.00000022370682
 30
0.0
 40
2.5
 41
9.0
 71
     1
 72
     5
  1
担当
 73
     1
 44
1.0
1001
ACAD
1000
MTEXTBEGIN
1070
    73
1070
     1
1070
    44
1040
1.0
1070
    74
1070
     0
1000
MTEXTEND
  0
MTEXT
  5
1B3
330
1AB
100
AcDbEntity
  8
太実線
100
AcDbMText
 10
29.9999995032631
 20
20.00000022370682
 30
0.0
 40
2.5
 41
10.0
 71
     1
 72
     5
  1
製図
 73
     1
 44
1.0
1001
ACAD
1000
MTEXTBEGIN
1070
    73
1070
     1
1070
    44
1040
1.0
1070
    74
1070
     0
1000
MTEXTEND
  0
LINE
  5
1B4
330
1AB
100
AcDbEntity
  8
太実線
100
AcDbLine
 10
29.9999995032631
 20
20.00000022370682
 30
0.0
 11
29.9999995032631
 21
10.00000022370682
 31
0.0
  0
MTEXT
  5
1B5
330
1AB
100
AcDbEntity
  8
太実線
100
AcDbMText
 10
59.99999950326309
 20
20.00000022370682
 30
0.0
 40
2.5
 41
11.0
 71
     1
 72
     5
  1
検図
 73
     1
 44
1.0
1001
ACAD
1000
MTEXTBEGIN
1070
    73
1070
     1
1070
    44
1040
1.0
1070
    74
1070
     0
1000
MTEXTEND
  0
LINE
  5
1B6
330
1AB
100
AcDbEntity
  8
太実線
100
AcDbLine
 10
59.99999950326309
 20
20.00000022370682
 30
0.0
 11
59.99999950326309
 21
10.00000022370682
 31
0.0
  0
MTEXT
  5
1B7
330
1AB
100
AcDbEntity
  8
太実線
100
AcDbMText
 10
38.99999948298841
 20
6.500000635272613
 30
0.0
 40
2.5
 41
0.0
 71
     1
 72
     5
  1
京 都 自 動 機 器 株 式 会 社
 73
     1
 44
1.0
1001
ACAD
1000
MTEXTBEGIN
1070
    73
1070
     1
1070
    44
1040
1.0
1070
    74
1070
     0
1000
MTEXTEND
  0
LINE
  5
1B8
330
1AB
100
AcDbEntity
  8
太実線
100
AcDbLine
 10
89.9999995032631
 20
40.00000022370682
 30
0.0
 11
89.9999995032631
 21
10.00000022370682
 31
0.0
  0
MTEXT
  5
1B9
330
1AB
100
AcDbEntity
  8
太実線
100
AcDbMText
 10
89.9999995032631
 20
20.00000022370682
 30
0.0
 40
2.5
 41
21.0
 71
     1
 72
     5
  1
設計年月日
 73
     1
 44
1.0
1001
ACAD
1000
MTEXTBEGIN
1070
    73
1070
     1
1070
    44
1040
1.0
1070
    74
1070
     0
1000
MTEXTEND
  0
MTEXT
  5
1BA
330
1AB
100
AcDbEntity
  8
太実線
100
AcDbMText
 10
89.9999995032631
 20
30.00000022370682
 30
0.0
 40
2.5
 41
20.0
 71
     1
 72
     5
  1
図面番号
 73
     1
 44
1.0
1001
ACAD
1000
MTEXTBEGIN
1070
    73
1070
     1
1070
    44
1040
1.0
1070
    74
1070
     0
1000
MTEXTEND
  0
MTEXT
  5
1BB
330
1AB
100
AcDbEntity
  8
太実線
100
AcDbMText
 10
89.9999995032631
 20
40.00000022370682
 30
0.0
 40
2.5
 41
20.0
 71
     1
 72
     5
  1
設計番号
 73
     1
 44
1.0
1001
ACAD
1000
MTEXTBEGIN
1070
    73
1070
     1
1070
    44
1040
1.0
1070
    74
1070
     0
1000
MTEXTEND
  0
LINE
  5
1BC
330
1AB
100
AcDbEntity
  8
太実線
100
AcDbLine
 10
119.9999995032631
 20
0.0000002237068202
 30
0.0
 11
119.9999995032631
 21
40.00000022370682
 31
0.0
  0
ENDBLK
  5
1BE
330
1AB
100
AcDbEntity
  8
0
100
AcDbBlockEnd
  0
BLOCK
  5
26C
330
26B
100
AcDbEntity
  8
ASHADE
100
AcDbBlockBegin
  2
AVE_RENDER
 70
     0
 10
0.0
 20
0.0
 30
0.0
  3
AVE_RENDER
  1
AVE_RENDER
  0
ENDBLK
  5
26D
330
26B
100
AcDbEntity
  8
0
100
AcDbBlockEnd
  0
BLOCK
  5
27A
330
279
100
AcDbEntity
  8
ASHADE
100
AcDbBlockBegin
  2
AVE_GLOBAL
 70
     0
 10
0.0
 20
0.0
 30
0.0
  3
AVE_GLOBAL
  1
AVE_GLOBAL
  0
ENDBLK
  5
27B
330
279
100
AcDbEntity
  8
0
100
AcDbBlockEnd
  0
BLOCK
  5
402
330
3F8
100
AcDbEntity
  8
0
100
AcDbBlockBegin
  2
*D4
 70
     1
 10
0.0
 20
0.0
 30
0.0
  3
*D4
  1

  0
LINE
  5
3F9
330
3F8
100
AcDbEntity
  8
寸法線
 62
     0
370
    -2
100
AcDbLine
 10
49.375
 20
100.0
 30
0.0
 11
40.00000000000001
 21
100.0
 31
0.0
  0
LINE
  5
3FA
330
3F8
100
AcDbEntity
  8
寸法線
 62
     0
370
    -2
100
AcDbLine
 10
49.375
 20
50.0
 30
0.0
 11
40.0
 21
50.0
 31
0.0
  0
LINE
  5
3FB
330
3F8
100
AcDbEntity
  8
寸法線
 62
     0
370
    -2
100
AcDbLine
 10
41.25000000000001
 20
97.5
 30
0.0
 11
41.25
 21
52.5
 31
0.0
  0
SOLID
  5
3FC
330
3F8
100
AcDbEntity
  8
寸法線
 62
     0
100
AcDbTrace
 10
40.83333333333334
 20
97.5
 30
0.0
 11
41.66666666666667
 21
97.5
 31
0.0
 12
41.25000000000001
 22
100.0
 32
0.0
 13
41.25000000000001
 23
100.0
 33
0.0
  0
SOLID
  5
3FD
330
3F8
100
AcDbEntity
  8
寸法線
 62
     0
100
AcDbTrace
 10
40.83333333333334
 20
52.5
 30
0.0
 11
41.66666666666666
 21
52.5
 31
0.0
 12
41.25
 22
50.0
 32
0.0
 13
41.25
 23
50.0
 33
0.0
  0
MTEXT
  5
3FE
330
3F8
100
AcDbEntity
  8
寸法線
 62
     0
100
AcDbMText
 10
39.375
 20
75.5
 30
0.0
 40
2.5
 41
0.0
 71
     5
 72
     1
  1
50
 11
0.0000000000000001
 21
1.0
 31
0.0
 73
     1
 44
1.0
1001
ACAD
1000
MTEXTBEGIN
1070
    73
1070
     1
1070
    44
1040
1.0
1070
    74
1070
     0
1000
MTEXTEND
  0
POINT
  5
3FF
330
3F8
100
AcDbEntity
  8
Defpoints
 62
     0
100
AcDbPoint
 10
50.0
 20
100.0
 30
0.0
  0
POINT
  5
400
330
3F8
100
AcDbEntity
  8
Defpoints
 62
     0
100
AcDbPoint
 10
50.0
 20
50.0
 30
0.0
  0
POINT
  5
401
330
3F8
100
AcDbEntity
  8
Defpoints
 62
     0
100
AcDbPoint
 10
41.25
 20
50.0
 30
0.0
  0
ENDBLK
  5
403
330
3F8
100
AcDbEntity
  8
0
100
AcDbBlockEnd
  0
BLOCK
  5
40E
330
404
100
AcDbEntity
  8
0
100
AcDbBlockBegin
  2
*D5
 70
     1
 10
0.0
 20
0.0
 30
0.0
  3
*D5
  1

  0
LINE
  5
405
330
404
100
AcDbEntity
  8
寸法線
 62
     0
370
    -2
100
AcDbLine
 10
49.375
 20
100.0
 30
0.0
 11
44.00000000000001
 21
100.0
 31
0.0
  0
LINE
  5
406
330
404
100
AcDbEntity
  8
寸法線
 62
     0
370
    -2
100
AcDbLine
 10
49.375
 20
90.0
 30
0.0
 11
44.00000000000001
 21
90.0
 31
0.0
  0
LINE
  5
407
330
404
100
AcDbEntity
  8
寸法線
 62
     0
370
    -2
100
AcDbLine
 10
45.25000000000001
 20
97.5
 30
0.0
 11
45.25000000000001
 21
92.5
 31
0.0
  0
SOLID
  5
408
330
404
100
AcDbEntity
  8
寸法線
 62
     0
100
AcDbTrace
 10
44.83333333333335
 20
97.5
 30
0.0
 11
45.66666666666668
 21
97.5
 31
0.0
 12
45.25000000000001
 22
100.0
 32
0.0
 13
45.25000000000001
 23
100.0
 33
0.0
  0
SOLID
  5
409
330
404
100
AcDbEntity
  8
寸法線
 62
     0
100
AcDbTrace
 10
44.83333333333335
 20
92.5
 30
0.0
 11
45.66666666666668
 21
92.5
 31
0.0
 12
45.25000000000001
 22
90.0
 32
0.0
 13
45.25000000000001
 23
90.0
 33
0.0
  0
MTEXT
  5
40A
330
404
100
AcDbEntity
  8
寸法線
 62
     0
100
AcDbMText
 10
43.375
 20
94.74999999999999
 30
0.0
 40
2.5
 41
0.0
 71
     5
 72
     1
  1
10
 11
0.0000000000000001
 21
1.0
 31
0.0
 73
     1
 44
1.0
1001
ACAD
1000
MTEXTBEGIN
1070
    73
1070
     1
1070
    44
1040
1.0
1070
    74
1070
     0
1000
MTEXTEND
  0
POINT
  5
40B
330
404
100
AcDbEntity
  8
Defpoints
 62
     0
100
AcDbPoint
 10
50.0
 20
100.0
 30
0.0
  0
POINT
  5
40C
330
404
100
AcDbEntity
  8
Defpoints
 62
     0
100
AcDbPoint
 10
50.0
 20
90.0
 30
0.0
  0
POINT
  5
40D
330
404
100
AcDbEntity
  8
Defpoints
 62
     0
100
AcDbPoint
 10
45.25000000000001
 20
90.0
 30
0.0
  0
ENDBLK
  5
40F
330
404
100
AcDbEntity
  8
0
100
AcDbBlockEnd
  0
BLOCK
  5
41A
330
410
100
AcDbEntity
  8
0
100
AcDbBlockBegin
  2
*D6
 70
     1
 10
0.0
 20
0.0
 30
0.0
  3
*D6
  1

  0
LINE
  5
411
330
410
100
AcDbEntity
  8
寸法線
  6
Continuous
 62
     0
370
    -2
100
AcDbLine
 10
57.0
 20
100.625
 30
0.0
 11
57.0
 21
115.0
 31
0.0
  0
LINE
  5
412
330
410
100
AcDbEntity
  8
寸法線
  6
Continuous
 62
     0
370
    -2
100
AcDbLine
 10
181.0
 20
100.625
 30
0.0
 11
181.0
 21
115.0
 31
0.0
  0
LINE
  5
413
330
410
100
AcDbEntity
  8
寸法線
  6
Continuous
 62
     0
370
    -2
100
AcDbLine
 10
59.5
 20
113.75
 30
0.0
 11
178.5
 21
113.75
 31
0.0
  0
SOLID
  5
414
330
410
100
AcDbEntity
  8
寸法線
  6
Continuous
 62
     0
100
AcDbTrace
 10
59.5
 20
114.1666666666667
 30
0.0
 11
59.5
 21
113.3333333333333
 31
0.0
 12
57.0
 22
113.75
 32
0.0
 13
57.0
 23
113.75
 33
0.0
  0
SOLID
  5
415
330
410
100
AcDbEntity
  8
寸法線
  6
Continuous
 62
     0
100
AcDbTrace
 10
178.5
 20
114.1666666666667
 30
0.0
 11
178.5
 21
113.3333333333333
 31
0.0
 12
181.0
 22
113.75
 32
0.0
 13
181.0
 23
113.75
 33
0.0
  0
MTEXT
  5
416
330
410
100
AcDbEntity
  8
寸法線
  6
Continuous
 62
     0
100
AcDbMText
 10
119.0
 20
115.625
 30
0.0
 40
2.5
 41
0.0
 71
     5
 72
     1
  1
124
 73
     1
 44
1.0
1001
ACAD
1000
MTEXTBEGIN
1070
    73
1070
     1
1070
    44
1040
1.0
1070
    74
1070
     0
1000
MTEXTEND
  0
POINT
  5
417
330
410
100
AcDbEntity
  8
Defpoints
  6
Continuous
 62
     0
100
AcDbPoint
 10
57.0
 20
100.0
 30
0.0
  0
POINT
  5
418
330
410
100
AcDbEntity
  8
Defpoints
  6
Continuous
 62
     0
100
AcDbPoint
 10
181.0
 20
100.0
 30
0.0
  0
POINT
  5
419
330
410
100
AcDbEntity
  8
Defpoints
  6
Continuous
 62
     0
100
AcDbPoint
 10
181.0
 20
113.75
 30
0.0
  0
ENDBLK
  5
41B
330
410
100
AcDbEntity
  8
0
100
AcDbBlockEnd
  0
BLOCK
  5
426
330
41C
100
AcDbEntity
  8
0
100
AcDbBlockBegin
  2
*D7
 70
     1
 10
0.0
 20
0.0
 30
0.0
  3
*D7
  1

  0
LINE
  5
41D
330
41C
100
AcDbEntity
  8
寸法線
  6
Continuous
 62
     0
370
    -2
100
AcDbLine
 10
57.0
 20
100.625
 30
0.0
 11
57.0
 21
107.25
 31
0.0
  0
LINE
  5
41E
330
41C
100
AcDbEntity
  8
寸法線
  6
Continuous
 62
     0
370
    -2
100
AcDbLine
 10
67.0
 20
100.625
 30
0.0
 11
67.0
 21
107.25
 31
0.0
  0
LINE
  5
41F
330
41C
100
AcDbEntity
  8
寸法線
  6
Continuous
 62
     0
370
    -2
100
AcDbLine
 10
59.5
 20
106.0
 30
0.0
 11
64.5
 21
106.0
 31
0.0
  0
SOLID
  5
420
330
41C
100
AcDbEntity
  8
寸法線
  6
Continuous
 62
     0
100
AcDbTrace
 10
59.5
 20
106.4166666666666
 30
0.0
 11
59.5
 21
105.5833333333333
 31
0.0
 12
57.0
 22
106.0
 32
0.0
 13
57.0
 23
106.0
 33
0.0
  0
SOLID
  5
421
330
41C
100
AcDbEntity
  8
寸法線
  6
Continuous
 62
     0
100
AcDbTrace
 10
64.5
 20
106.4166666666666
 30
0.0
 11
64.5
 21
105.5833333333333
 31
0.0
 12
67.0
 22
106.0
 32
0.0
 13
67.0
 23
106.0
 33
0.0
  0
MTEXT
  5
422
330
41C
100
AcDbEntity
  8
寸法線
  6
Continuous
 62
     0
100
AcDbMText
 10
62.25
 20
107.875
 30
0.0
 40
2.5
 41
0.0
 71
     5
 72
     1
  1
10
 73
     1
 44
1.0
1001
ACAD
1000
MTEXTBEGIN
1070
    73
1070
     1
1070
    44
1040
1.0
1070
    74
1070
     0
1000
MTEXTEND
  0
POINT
  5
423
330
41C
100
AcDbEntity
  8
Defpoints
  6
Continuous
 62
     0
100
AcDbPoint
 10
57.0
 20
100.0
 30
0.0
  0
POINT
  5
424
330
41C
100
AcDbEntity
  8
Defpoints
  6
Continuous
 62
     0
100
AcDbPoint
 10
67.0
 20
100.0
 30
0.0
  0
POINT
  5
425
330
41C
100
AcDbEntity
  8
Defpoints
  6
Continuous
 62
     0
100
AcDbPoint
 10
67.0
 20
106.0
 30
0.0
  0
ENDBLK
  5
427
330
41C
100
AcDbEntity
  8
0
100
AcDbBlockEnd
  0
BLOCK
  5
432
330
428
100
AcDbEntity
  8
0
100
AcDbBlockBegin
  2
*D8
 70
     1
 10
0.0
 20
0.0
 30
0.0
  3
*D8
  1

  0
LINE
  5
429
330
428
100
AcDbEntity
  8
寸法線
  6
Continuous
 62
     0
370
    -2
100
AcDbLine
 10
50.0
 20
49.375
 30
0.0
 11
50.0
 21
27.25
 31
0.0
  0
LINE
  5
42A
330
428
100
AcDbEntity
  8
寸法線
  6
Continuous
 62
     0
370
    -2
100
AcDbLine
 10
78.0
 20
49.375
 30
0.0
 11
78.0
 21
27.25
 31
0.0
  0
LINE
  5
42B
330
428
100
AcDbEntity
  8
寸法線
  6
Continuous
 62
     0
370
    -2
100
AcDbLine
 10
52.5
 20
28.5
 30
0.0
 11
75.5
 21
28.5
 31
0.0
  0
SOLID
  5
42C
330
428
100
AcDbEntity
  8
寸法線
  6
Continuous
 62
     0
100
AcDbTrace
 10
52.5
 20
28.91666666666667
 30
0.0
 11
52.5
 21
28.08333333333333
 31
0.0
 12
50.0
 22
28.5
 32
0.0
 13
50.0
 23
28.5
 33
0.0
  0
SOLID
  5
42D
330
428
100
AcDbEntity
  8
寸法線
  6
Continuous
 62
     0
100
AcDbTrace
 10
75.5
 20
28.91666666666667
 30
0.0
 11
75.5
 21
28.08333333333333
 31
0.0
 12
78.0
 22
28.5
 32
0.0
 13
78.0
 23
28.5
 33
0.0
  0
MTEXT
  5
42E
330
428
100
AcDbEntity
  8
寸法線
  6
Continuous
 62
     0
100
AcDbMText
 10
64.0
 20
30.375
 30
0.0
 40
2.5
 41
0.0
 71
     5
 72
     1
  1
28
 73
     1
 44
1.0
1001
ACAD
1000
MTEXTBEGIN
1070
    73
1070
     1
1070
    44
1040
1.0
1070
    74
1070
     0
1000
MTEXTEND
  0
POINT
  5
42F
330
428
100
AcDbEntity
  8
Defpoints
  6
Continuous
 62
     0
100
AcDbPoint
 10
50.0
 20
50.0
 30
0.0
  0
POINT
  5
430
330
428
100
AcDbEntity
  8
Defpoints
  6
Continuous
 62
     0
100
AcDbPoint
 10
78.0
 20
50.0
 30
0.0
  0
POINT
  5
431
330
428
100
AcDbEntity
  8
Defpoints
  6
Continuous
 62
     0
100
AcDbPoint
 10
78.0
 20
28.5
 30
0.0
  0
ENDBLK
  5
433
330
428
100
AcDbEntity
  8
0
100
AcDbBlockEnd
  0
BLOCK
  5
43E
330
434
100
AcDbEntity
  8
0
100
AcDbBlockBegin
  2
*D9
 70
     1
 10
0.0
 20
0.0
 30
0.0
  3
*D9
  1

  0
LINE
  5
435
330
434
100
AcDbEntity
  8
寸法線
  6
Continuous
 62
     0
370
    -2
100
AcDbLine
 10
57.0
 20
49.375
 30
0.0
 11
57.0
 21
18.25
 31
0.0
  0
LINE
  5
436
330
434
100
AcDbEntity
  8
寸法線
  6
Continuous
 62
     0
370
    -2
100
AcDbLine
 10
50.0
 20
49.375
 30
0.0
 11
50.0
 21
18.25
 31
0.0
  0
LINE
  5
437
330
434
100
AcDbEntity
  8
寸法線
  6
Continuous
 62
     0
370
    -2
100
AcDbLine
 10
54.5
 20
19.5
 30
0.0
 11
52.5
 21
19.5
 31
0.0
  0
SOLID
  5
438
330
434
100
AcDbEntity
  8
寸法線
  6
Continuous
 62
     0
100
AcDbTrace
 10
54.5
 20
19.91666666666667
 30
0.0
 11
54.5
 21
19.08333333333333
 31
0.0
 12
57.0
 22
19.5
 32
0.0
 13
57.0
 23
19.5
 33
0.0
  0
SOLID
  5
439
330
434
100
AcDbEntity
  8
寸法線
  6
Continuous
 62
     0
100
AcDbTrace
 10
52.5
 20
19.91666666666667
 30
0.0
 11
52.5
 21
19.08333333333333
 31
0.0
 12
50.0
 22
19.5
 32
0.0
 13
50.0
 23
19.5
 33
0.0
  0
MTEXT
  5
43A
330
434
100
AcDbEntity
  8
寸法線
  6
Continuous
 62
     0
100
AcDbMText
 10
53.5
 20
21.375
 30
0.0
 40
2.5
 41
0.0
 71
     5
 72
     1
  1
7
 73
     1
 44
1.0
1001
ACAD
1000
MTEXTBEGIN
1070
    73
1070
     1
1070
    44
1040
1.0
1070
    74
1070
     0
1000
MTEXTEND
  0
POINT
  5
43B
330
434
100
AcDbEntity
  8
Defpoints
  6
Continuous
 62
     0
100
AcDbPoint
 10
57.0
 20
50.0
 30
0.0
  0
POINT
  5
43C
330
434
100
AcDbEntity
  8
Defpoints
  6
Continuous
 62
     0
100
AcDbPoint
 10
50.0
 20
50.0
 30
0.0
  0
POINT
  5
43D
330
434
100
AcDbEntity
  8
Defpoints
  6
Continuous
 62
     0
100
AcDbPoint
 10
50.0
 20
19.5
 30
0.0
  0
ENDBLK
  5
43F
330
434
100
AcDbEntity
  8
0
100
AcDbBlockEnd
  0
BLOCK
  5
44A
330
440
100
AcDbEntity
  8
0
100
AcDbBlockBegin
  2
*D10
 70
     1
 10
0.0
 20
0.0
 30
0.0
  3
*D10
  1

  0
LINE
  5
441
330
440
100
AcDbEntity
  8
寸法線
  6
Continuous
 62
     0
370
    -2
100
AcDbLine
 10
57.0
 20
49.375
 30
0.0
 11
57.0
 21
18.0
 31
0.0
  0
LINE
  5
442
330
440
100
AcDbEntity
  8
寸法線
  6
Continuous
 62
     0
370
    -2
100
AcDbLine
 10
152.0
 20
47.075
 30
0.0
 11
152.0
 21
18.0
 31
0.0
  0
LINE
  5
443
330
440
100
AcDbEntity
  8
寸法線
  6
Continuous
 62
     0
370
    -2
100
AcDbLine
 10
59.5
 20
19.25
 30
0.0
 11
149.5
 21
19.25
 31
0.0
  0
SOLID
  5
444
330
440
100
AcDbEntity
  8
寸法線
  6
Continuous
 62
     0
100
AcDbTrace
 10
59.5
 20
19.66666666666666
 30
0.0
 11
59.5
 21
18.83333333333333
 31
0.0
 12
57.0
 22
19.25
 32
0.0
 13
57.0
 23
19.25
 33
0.0
  0
SOLID
  5
445
330
440
100
AcDbEntity
  8
寸法線
  6
Continuous
 62
     0
100
AcDbTrace
 10
149.5
 20
19.66666666666666
 30
0.0
 11
149.5
 21
18.83333333333333
 31
0.0
 12
152.0
 22
19.25
 32
0.0
 13
152.0
 23
19.25
 33
0.0
  0
MTEXT
  5
446
330
440
100
AcDbEntity
  8
寸法線
  6
Continuous
 62
     0
100
AcDbMText
 10
107.0
 20
21.125
 30
0.0
 40
2.5
 41
0.0
 71
     5
 72
     1
  1
95
 73
     1
 44
1.0
1001
ACAD
1000
MTEXTBEGIN
1070
    73
1070
     1
1070
    44
1040
1.0
1070
    74
1070
     0
1000
MTEXTEND
  0
POINT
  5
447
330
440
100
AcDbEntity
  8
Defpoints
  6
Continuous
 62
     0
100
AcDbPoint
 10
57.0
 20
50.0
 30
0.0
  0
POINT
  5
448
330
440
100
AcDbEntity
  8
Defpoints
  6
Continuous
 62
     0
100
AcDbPoint
 10
152.0
 20
47.7
 30
0.0
  0
POINT
  5
449
330
440
100
AcDbEntity
  8
Defpoints
  6
Continuous
 62
     0
100
AcDbPoint
 10
152.0
 20
19.25
 30
0.0
  0
ENDBLK
  5
44B
330
440
100
AcDbEntity
  8
0
100
AcDbBlockEnd
  0
BLOCK
  5
456
330
44C
100
AcDbEntity
  8
0
100
AcDbBlockBegin
  2
*D11
 70
     1
 10
0.0
 20
0.0
 30
0.0
  3
*D11
  1

  0
LINE
  5
44D
330
44C
100
AcDbEntity
  8
寸法線
  6
Continuous
 62
     0
370
    -2
100
AcDbLine
 10
152.0
 20
46.45
 30
0.0
 11
152.0
 21
27.75
 31
0.0
  0
LINE
  5
44E
330
44C
100
AcDbEntity
  8
寸法線
  6
Continuous
 62
     0
370
    -2
100
AcDbLine
 10
142.0
 20
49.375
 30
0.0
 11
142.0
 21
27.75
 31
0.0
  0
LINE
  5
44F
330
44C
100
AcDbEntity
  8
寸法線
  6
Continuous
 62
     0
370
    -2
100
AcDbLine
 10
149.5
 20
29.0
 30
0.0
 11
144.5
 21
29.0
 31
0.0
  0
SOLID
  5
450
330
44C
100
AcDbEntity
  8
寸法線
  6
Continuous
 62
     0
100
AcDbTrace
 10
149.5
 20
29.41666666666667
 30
0.0
 11
149.5
 21
28.58333333333333
 31
0.0
 12
152.0
 22
29.0
 32
0.0
 13
152.0
 23
29.0
 33
0.0
  0
SOLID
  5
451
330
44C
100
AcDbEntity
  8
寸法線
  6
Continuous
 62
     0
100
AcDbTrace
 10
144.5
 20
29.41666666666667
 30
0.0
 11
144.5
 21
28.58333333333333
 31
0.0
 12
142.0
 22
29.0
 32
0.0
 13
142.0
 23
29.0
 33
0.0
  0
MTEXT
  5
452
330
44C
100
AcDbEntity
  8
寸法線
  6
Continuous
 62
     0
100
AcDbMText
 10
147.0
 20
30.875
 30
0.0
 40
2.5
 41
0.0
 71
     5
 72
     1
  1
10
 73
     1
 44
1.0
1001
ACAD
1000
MTEXTBEGIN
1070
    73
1070
     1
1070
    44
1040
1.0
1070
    74
1070
     0
1000
MTEXTEND
  0
POINT
  5
453
330
44C
100
AcDbEntity
  8
Defpoints
  6
Continuous
 62
     0
100
AcDbPoint
 10
152.0
 20
47.075
 30
0.0
  0
POINT
  5
454
330
44C
100
AcDbEntity
  8
Defpoints
  6
Continuous
 62
     0
100
AcDbPoint
 10
142.0
 20
50.0
 30
0.0
  0
POINT
  5
455
330
44C
100
AcDbEntity
  8
Defpoints
  6
Continuous
 62
     0
100
AcDbPoint
 10
142.0
 20
29.0
 30
0.0
  0
ENDBLK
  5
457
330
44C
100
AcDbEntity
  8
0
100
AcDbBlockEnd
  0
BLOCK
  5
462
330
458
100
AcDbEntity
  8
0
100
AcDbBlockBegin
  2
*D12
 70
     1
 10
0.0
 20
0.0
 30
0.0
  3
*D12
  1

  0
LINE
  5
459
330
458
100
AcDbEntity
  8
寸法線
  6
Continuous
 62
     0
370
    -2
100
AcDbLine
 10
152.0
 20
45.825
 30
0.0
 11
152.0
 21
23.5
 31
0.0
  0
LINE
  5
45A
330
458
100
AcDbEntity
  8
寸法線
  6
Continuous
 62
     0
370
    -2
100
AcDbLine
 10
117.0
 20
47.075
 30
0.0
 11
117.0
 21
23.5
 31
0.0
  0
LINE
  5
45B
330
458
100
AcDbEntity
  8
寸法線
  6
Continuous
 62
     0
370
    -2
100
AcDbLine
 10
149.5
 20
24.75
 30
0.0
 11
119.5
 21
24.75
 31
0.0
  0
SOLID
  5
45C
330
458
100
AcDbEntity
  8
寸法線
  6
Continuous
 62
     0
100
AcDbTrace
 10
149.5
 20
25.16666666666667
 30
0.0
 11
149.5
 21
24.33333333333334
 31
0.0
 12
152.0
 22
24.75
 32
0.0
 13
152.0
 23
24.75
 33
0.0
  0
SOLID
  5
45D
330
458
100
AcDbEntity
  8
寸法線
  6
Continuous
 62
     0
100
AcDbTrace
 10
119.5
 20
25.16666666666667
 30
0.0
 11
119.5
 21
24.33333333333334
 31
0.0
 12
117.0
 22
24.75
 32
0.0
 13
117.0
 23
24.75
 33
0.0
  0
MTEXT
  5
45E
330
458
100
AcDbEntity
  8
寸法線
  6
Continuous
 62
     0
100
AcDbMText
 10
134.5
 20
26.625
 30
0.0
 40
2.5
 41
0.0
 71
     5
 72
     1
  1
35
 73
     1
 44
1.0
1001
ACAD
1000
MTEXTBEGIN
1070
    73
1070
     1
1070
    44
1040
1.0
1070
    74
1070
     0
1000
MTEXTEND
  0
POINT
  5
45F
330
458
100
AcDbEntity
  8
Defpoints
  6
Continuous
 62
     0
100
AcDbPoint
 10
152.0
 20
46.45
 30
0.0
  0
POINT
  5
460
330
458
100
AcDbEntity
  8
Defpoints
  6
Continuous
 62
     0
100
AcDbPoint
 10
117.0
 20
47.7
 30
0.0
  0
POINT
  5
461
330
458
100
AcDbEntity
  8
Defpoints
  6
Continuous
 62
     0
100
AcDbPoint
 10
117.0
 20
24.75
 30
0.0
  0
ENDBLK
  5
463
330
458
100
AcDbEntity
  8
0
100
AcDbBlockEnd
  0
BLOCK
  5
46F
330
464
100
AcDbEntity
  8
0
100
AcDbBlockBegin
  2
*D13
 70
     1
 10
0.0
 20
0.0
 30
0.0
  3
*D13
  1

  0
LINE
  5
465
330
464
100
AcDbEntity
  8
寸法線
  6
Continuous
 62
     0
370
    -2
100
AcDbLine
 10
127.3414366748532
 20
39.65856332514674
 30
0.0
 11
133.2309108759504
 21
33.76908912404952
 31
0.0
  0
ARC
  5
466
330
464
100
AcDbEntity
  8
寸法線
  6
Continuous
 62
     0
370
    -2
100
AcDbCircle
 10
117.0
 20
50.0
 30
0.0
 40
21.70397429043815
100
AcDbArc
 50
321.6033414946241
 51
353.396658505376
  0
SOLID
  5
467
330
464
100
AcDbEntity
  8
寸法線
  6
Continuous
 62
     0
100
AcDbTrace
 10
134.321156180442
 20
36.24244630815995
 30
0.0
 11
133.698941530348
 21
36.7967867934692
 31
0.0
 12
132.3470273994673
 22
34.65297260053272
 32
0.0
 13
132.3470273994673
 23
34.65297260053272
 33
0.0
  0
SOLID
  5
468
330
464
100
AcDbEntity
  8
寸法線
  6
Continuous
 62
     0
100
AcDbTrace
 10
138.1440163865365
 20
47.52814679704289
 30
0.0
 11
138.9759665012199
 21
47.48015251485627
 31
0.0
 12
138.7039742904381
 22
50.0
 32
0.0
 13
138.7039742904381
 23
50.0
 33
0.0
  0
MTEXT
  5
469
330
464
100
AcDbEntity
  8
寸法線
  6
Continuous
 62
     0
100
AcDbMText
 10
135.0438032682652
 20
41.77750737142342
 30
0.0
 40
2.5
 41
0.0
 71
     5
 72
     1
  1
45°
 11
0.4146705980924893
 21
0.9099715902585188
 31
0.0
 73
     1
 44
1.0
1001
ACAD
1000
MTEXTBEGIN
1070
    73
1070
     1
1070
    44
1040
1.0
1070
    74
1070
     0
1000
MTEXTEND
  0
POINT
  5
46A
330
464
100
AcDbEntity
  8
Defpoints
  6
Continuous
 62
     0
100
AcDbPoint
 10
137.9644293002481
 20
44.38259809921913
 30
0.0
  0
POINT
  5
46B
330
464
100
AcDbEntity
  8
Defpoints
  6
Continuous
 62
     0
100
AcDbPoint
 10
50.0
 20
50.0
 30
0.0
  0
POINT
  5
46C
330
464
100
AcDbEntity
  8
Defpoints
  6
Continuous
 62
     0
100
AcDbPoint
 10
117.0
 20
50.0
 30
0.0
  0
POINT
  5
46D
330
464
100
AcDbEntity
  8
Defpoints
  6
Continuous
 62
     0
100
AcDbPoint
 10
126.8994949366116
 20
40.10050506338834
 30
0.0
  0
POINT
  5
46E
330
464
100
AcDbEntity
  8
Defpoints
  6
Continuous
 62
     0
100
AcDbPoint
 10
141.9999999999999
 20
50.0
 30
0.0
  0
ENDBLK
  5
470
330
464
100
AcDbEntity
  8
0
100
AcDbBlockEnd
  0
BLOCK
  5
47B
330
471
100
AcDbEntity
  8
0
100
AcDbBlockBegin
  2
*D14
 70
     1
 10
0.0
 20
0.0
 30
0.0
  3
*D14
  1

  0
LINE
  5
472
330
471
100
AcDbEntity
  8
寸法線
  6
Continuous
 62
     0
370
    -2
100
AcDbLine
 10
117.4419417382416
 20
50.44194173824158
 30
0.0
 11
133.0088834764832
 21
66.00888347648314
 31
0.0
  0
LINE
  5
473
330
471
100
AcDbEntity
  8
寸法線
  6
Continuous
 62
     0
370
    -2
100
AcDbLine
 10
127.7833784130948
 20
40.10050506338831
 30
0.0
 11
143.3503201513364
 21
55.66744680162987
 31
0.0
  0
LINE
  5
474
330
471
100
AcDbEntity
  8
寸法線
  6
Continuous
 62
     0
370
    -2
100
AcDbLine
 10
133.8927669529664
 20
63.35723304703358
 30
0.0
 11
140.6986697218869
 21
56.55133027811306
 31
0.0
  0
SOLID
  5
475
330
471
100
AcDbEntity
  8
寸法線
  6
Continuous
 62
     0
100
AcDbTrace
 10
134.1873947784608
 20
63.65186087252797
 30
0.0
 11
133.598139127472
 21
63.0626052215392
 31
0.0
 12
132.125
 22
65.12499999999995
 32
0.0
 13
132.125
 23
65.12499999999995
 33
0.0
  0
SOLID
  5
476
330
471
100
AcDbEntity
  8
寸法線
  6
Continuous
 62
     0
100
AcDbTrace
 10
140.9932975473813
 20
56.84595810360744
 30
0.0
 11
140.4040418963925
 21
56.25670245261867
 31
0.0
 12
142.4664366748532
 22
54.78356332514668
 32
0.0
 13
142.4664366748532
 23
54.78356332514668
 33
0.0
  0
MTEXT
  5
477
330
471
100
AcDbEntity
  8
寸法線
  6
Continuous
 62
     0
100
AcDbMText
 10
138.6215435521514
 20
61.28010687729809
 30
0.0
 40
2.5
 41
0.0
 71
     5
 72
     1
  1
14
 11
0.7071067811865461
 21
-0.7071067811865492
 31
0.0
 73
     1
 44
1.0
1001
ACAD
1000
MTEXTBEGIN
1070
    73
1070
     1
1070
    44
1040
1.0
1070
    74
1070
     0
1000
MTEXTEND
  0
POINT
  5
478
330
471
100
AcDbEntity
  8
Defpoints
  6
Continuous
 62
     0
100
AcDbPoint
 10
117.0
 20
49.99999999999999
 30
0.0
  0
POINT
  5
479
330
471
100
AcDbEntity
  8
Defpoints
  6
Continuous
 62
     0
100
AcDbPoint
 10
127.3414366748532
 20
39.65856332514672
 30
0.0
  0
POINT
  5
47A
330
471
100
AcDbEntity
  8
Defpoints
  6
Continuous
 62
     0
100
AcDbPoint
 10
142.4664366748532
 20
54.78356332514668
 30
0.0
  0
ENDBLK
  5
47C
330
471
100
AcDbEntity
  8
0
100
AcDbBlockEnd
  0
BLOCK
  5
487
330
47D
100
AcDbEntity
  8
0
100
AcDbBlockBegin
  2
*D15
 70
     1
 10
0.0
 20
0.0
 30
0.0
  3
*D15
  1

  0
LINE
  5
47E
330
47D
100
AcDbEntity
  8
寸法線
  6
Continuous
 62
     0
370
    -2
100
AcDbLine
 10
63.87500000000001
 20
145.7
 30
0.0
 11
42.25
 21
145.7
 31
0.0
  0
LINE
  5
47F
330
47D
100
AcDbEntity
  8
寸法線
  6
Continuous
 62
     0
370
    -2
100
AcDbLine
 10
49.375
 20
157.7
 30
0.0
 11
42.25
 21
157.7
 31
0.0
  0
LINE
  5
480
330
47D
100
AcDbEntity
  8
寸法線
  6
Continuous
 62
     0
370
    -2
100
AcDbLine
 10
43.5
 20
148.2
 30
0.0
 11
43.5
 21
155.2
 31
0.0
  0
SOLID
  5
481
330
47D
100
AcDbEntity
  8
寸法線
  6
Continuous
 62
     0
100
AcDbTrace
 10
43.08333333333333
 20
148.2
 30
0.0
 11
43.91666666666666
 21
148.2
 31
0.0
 12
43.5
 22
145.7
 32
0.0
 13
43.5
 23
145.7
 33
0.0
  0
SOLID
  5
482
330
47D
100
AcDbEntity
  8
寸法線
  6
Continuous
 62
     0
100
AcDbTrace
 10
43.08333333333333
 20
155.2
 30
0.0
 11
43.91666666666666
 21
155.2
 31
0.0
 12
43.5
 22
157.7
 32
0.0
 13
43.5
 23
157.7
 33
0.0
  0
MTEXT
  5
483
330
47D
100
AcDbEntity
  8
寸法線
  6
Continuous
 62
     0
100
AcDbMText
 10
41.62499999999996
 20
151.7
 30
0.0
 40
2.5
 41
0.0
 71
     5
 72
     1
  1
12
 11
0.0000000000000001
 21
1.0
 31
0.0
 73
     1
 44
1.0
1001
ACAD
1000
MTEXTBEGIN
1070
    73
1070
     1
1070
    44
1040
1.0
1070
    74
1070
     0
1000
MTEXTEND
  0
POINT
  5
484
330
47D
100
AcDbEntity
  8
Defpoints
  6
Continuous
 62
     0
100
AcDbPoint
 10
64.5
 20
145.7
 30
0.0
  0
POINT
  5
485
330
47D
100
AcDbEntity
  8
Defpoints
  6
Continuous
 62
     0
100
AcDbPoint
 10
50.0
 20
157.7
 30
0.0
  0
POINT
  5
486
330
47D
100
AcDbEntity
  8
Defpoints
  6
Continuous
 62
     0
100
AcDbPoint
 10
43.5
 20
157.7
 30
0.0
  0
ENDBLK
  5
488
330
47D
100
AcDbEntity
  8
0
100
AcDbBlockEnd
  0
BLOCK
  5
493
330
489
100
AcDbEntity
  8
0
100
AcDbBlockBegin
  2
*D16
 70
     1
 10
0.0
 20
0.0
 30
0.0
  3
*D16
  1

  0
LINE
  5
48A
330
489
100
AcDbEntity
  8
寸法線
  6
Continuous
 62
     0
370
    -2
100
AcDbLine
 10
48.75
 20
157.7
 30
0.0
 11
43.49999999999994
 21
157.7
 31
0.0
  0
LINE
  5
48B
330
489
100
AcDbEntity
  8
寸法線
  6
Continuous
 62
     0
370
    -2
100
AcDbLine
 10
49.375
 20
462.6999999999999
 30
0.0
 11
43.5
 21
462.6999999999999
 31
0.0
  0
LINE
  5
48C
330
489
100
AcDbEntity
  8
寸法線
  6
Continuous
 62
     0
370
    -2
100
AcDbLine
 10
44.74999999999994
 20
160.2
 30
0.0
 11
44.75
 21
460.2
 31
0.0
  0
SOLID
  5
48D
330
489
100
AcDbEntity
  8
寸法線
  6
Continuous
 62
     0
100
AcDbTrace
 10
44.33333333333328
 20
160.2
 30
0.0
 11
45.16666666666661
 21
160.2
 31
0.0
 12
44.74999999999994
 22
157.7
 32
0.0
 13
44.74999999999994
 23
157.7
 33
0.0
  0
SOLID
  5
48E
330
489
100
AcDbEntity
  8
寸法線
  6
Continuous
 62
     0
100
AcDbTrace
 10
44.33333333333334
 20
460.2
 30
0.0
 11
45.16666666666667
 21
460.2
 31
0.0
 12
44.75
 22
462.6999999999999
 32
0.0
 13
44.75
 23
462.6999999999999
 33
0.0
  0
MTEXT
  5
48F
330
489
100
AcDbEntity
  8
寸法線
  6
Continuous
 62
     0
100
AcDbMText
 10
42.47727272727265
 20
310.2
 30
0.0
 40
2.5
 41
0.0
 71
     5
 72
     1
  1
{\fMS UI Gothic|b0|i0|c128|p50;バケットのＢ寸法現合約305}
 11
0.0000000000000001
 21
1.0
 31
0.0
 73
     1
 44
1.0
1001
ACAD
1000
MTEXTBEGIN
1070
    73
1070
     1
1070
    44
1040
1.0
1070
    74
1070
     0
1000
MTEXTEND
  0
POINT
  5
490
330
489
100
AcDbEntity
  8
Defpoints
  6
Continuous
 62
     0
100
AcDbPoint
 10
49.375
 20
157.7
 30
0.0
  0
POINT
  5
491
330
489
100
AcDbEntity
  8
Defpoints
  6
Continuous
 62
     0
100
AcDbPoint
 10
50.0
 20
462.6999999999999
 30
0.0
  0
POINT
  5
492
330
489
100
AcDbEntity
  8
Defpoints
  6
Continuous
 62
     0
100
AcDbPoint
 10
44.75
 20
462.6999999999999
 30
0.0
  0
ENDBLK
  5
494
330
489
100
AcDbEntity
  8
0
100
AcDbBlockEnd
  0
BLOCK
  5
49F
330
495
100
AcDbEntity
  8
0
100
AcDbBlockBegin
  2
*D17
 70
     1
 10
0.0
 20
0.0
 30
0.0
  3
*D17
  1

  0
LINE
  5
496
330
495
100
AcDbEntity
  8
寸法線
  6
Continuous
 62
     0
370
    -2
100
AcDbLine
 10
44.125
 20
462.6999999999999
 30
0.0
 11
43.49999999999999
 21
462.6999999999999
 31
0.0
  0
LINE
  5
497
330
495
100
AcDbEntity
  8
寸法線
  6
Continuous
 62
     0
370
    -2
100
AcDbLine
 10
63.87500000000001
 20
474.6999999999999
 30
0.0
 11
43.5
 21
474.6999999999999
 31
0.0
  0
LINE
  5
498
330
495
100
AcDbEntity
  8
寸法線
  6
Continuous
 62
     0
370
    -2
100
AcDbLine
 10
44.75
 20
465.2
 30
0.0
 11
44.75
 21
472.2
 31
0.0
  0
SOLID
  5
499
330
495
100
AcDbEntity
  8
寸法線
  6
Continuous
 62
     0
100
AcDbTrace
 10
44.33333333333333
 20
465.2
 30
0.0
 11
45.16666666666666
 21
465.2
 31
0.0
 12
44.74999999999999
 22
462.6999999999999
 32
0.0
 13
44.74999999999999
 23
462.6999999999999
 33
0.0
  0
SOLID
  5
49A
330
495
100
AcDbEntity
  8
寸法線
  6
Continuous
 62
     0
100
AcDbTrace
 10
44.33333333333333
 20
472.2
 30
0.0
 11
45.16666666666666
 21
472.2
 31
0.0
 12
44.75
 22
474.6999999999999
 32
0.0
 13
44.75
 23
474.6999999999999
 33
0.0
  0
MTEXT
  5
49B
330
495
100
AcDbEntity
  8
寸法線
  6
Continuous
 62
     0
100
AcDbMText
 10
42.87499999999992
 20
468.7
 30
0.0
 40
2.5
 41
0.0
 71
     5
 72
     1
  1
12
 11
0.0000000000000001
 21
1.0
 31
0.0
 73
     1
 44
1.0
1001
ACAD
1000
MTEXTBEGIN
1070
    73
1070
     1
1070
    44
1040
1.0
1070
    74
1070
     0
1000
MTEXTEND
  0
POINT
  5
49C
330
495
100
AcDbEntity
  8
Defpoints
  6
Continuous
 62
     0
100
AcDbPoint
 10
44.75
 20
462.6999999999999
 30
0.0
  0
POINT
  5
49D
330
495
100
AcDbEntity
  8
Defpoints
  6
Continuous
 62
     0
100
AcDbPoint
 10
64.5
 20
474.6999999999999
 30
0.0
  0
POINT
  5
49E
330
495
100
AcDbEntity
  8
Defpoints
  6
Continuous
 62
     0
100
AcDbPoint
 10
44.75
 20
474.6999999999999
 30
0.0
  0
ENDBLK
  5
4A0
330
495
100
AcDbEntity
  8
0
100
AcDbBlockEnd
  0
BLOCK
  5
4AB
330
4A1
100
AcDbEntity
  8
0
100
AcDbBlockBegin
  2
*D18
 70
     1
 10
0.0
 20
0.0
 30
0.0
  3
*D18
  1

  0
LINE
  5
4A2
330
4A1
100
AcDbEntity
  8
寸法線
  6
Continuous
 62
     0
370
    -2
100
AcDbLine
 10
102.375
 20
450.1999999999999
 30
0.0
 11
86.25000000000005
 21
450.1999999999999
 31
0.0
  0
LINE
  5
4A3
330
4A1
100
AcDbEntity
  8
寸法線
  6
Continuous
 62
     0
370
    -2
100
AcDbLine
 10
102.375
 20
170.2
 30
0.0
 11
86.25
 21
170.2
 31
0.0
  0
LINE
  5
4A4
330
4A1
100
AcDbEntity
  8
寸法線
  6
Continuous
 62
     0
370
    -2
100
AcDbLine
 10
87.50000000000005
 20
447.7
 30
0.0
 11
87.5
 21
172.7
 31
0.0
  0
SOLID
  5
4A5
330
4A1
100
AcDbEntity
  8
寸法線
  6
Continuous
 62
     0
100
AcDbTrace
 10
87.08333333333339
 20
447.7
 30
0.0
 11
87.91666666666673
 21
447.7
 31
0.0
 12
87.50000000000005
 22
450.1999999999999
 32
0.0
 13
87.50000000000005
 23
450.1999999999999
 33
0.0
  0
SOLID
  5
4A6
330
4A1
100
AcDbEntity
  8
寸法線
  6
Continuous
 62
     0
100
AcDbTrace
 10
87.08333333333333
 20
172.7
 30
0.0
 11
87.91666666666667
 21
172.7
 31
0.0
 12
87.5
 22
170.2
 32
0.0
 13
87.5
 23
170.2
 33
0.0
  0
MTEXT
  5
4A7
330
4A1
100
AcDbEntity
  8
寸法線
  6
Continuous
 62
     0
100
AcDbMText
 10
85.22727272727271
 20
310.2
 30
0.0
 40
2.5
 41
0.0
 71
     5
 72
     1
  1
{\fMS UI Gothic|b0|i0|c128|p50;バケットのＡ寸法}
 11
0.0000000000000001
 21
1.0
 31
0.0
 73
     1
 44
1.0
1001
ACAD
1000
MTEXTBEGIN
1070
    73
1070
     1
1070
    44
1040
1.0
1070
    74
1070
     0
1000
MTEXTEND
  0
POINT
  5
4A8
330
4A1
100
AcDbEntity
  8
Defpoints
  6
Continuous
 62
     0
100
AcDbPoint
 10
103.0
 20
450.1999999999999
 30
0.0
  0
POINT
  5
4A9
330
4A1
100
AcDbEntity
  8
Defpoints
  6
Continuous
 62
     0
100
AcDbPoint
 10
103.0
 20
170.2
 30
0.0
  0
POINT
  5
4AA
330
4A1
100
AcDbEntity
  8
Defpoints
  6
Continuous
 62
     0
100
AcDbPoint
 10
87.5
 20
170.2
 30
0.0
  0
ENDBLK
  5
4AC
330
4A1
100
AcDbEntity
  8
0
100
AcDbBlockEnd
  0
BLOCK
  5
4F8
330
4B0
100
AcDbEntity
  8
0
100
AcDbBlockBegin
  2
A$C318A2D0B
 70
     0
 10
0.0
 20
0.0
 30
0.0
  3
A$C318A2D0B
  1

  0
DIMENSION
  5
4B1
330
4B0
100
AcDbEntity
  8
寸法線
  6
Continuous
100
AcDbDimension
  2
*D18
 10
49.37500081711596
 20
152.2000004060381
 30
0.0
 11
47.10227354438866
 21
292.2000004060381
 31
0.0
 12
-38.12499918288404
 22
-17.99999959396189
 32
0.0
  1
{\fMS UI Gothic|b0|i0|c128|p50;バケットのＡ寸法}
 71
     5
 42
280.0
  3
ISO-25
100
AcDbAlignedDimension
 13
64.87500081711596
 23
432.2000004060381
 33
0.0
 14
64.87500081711596
 24
152.2000004060381
 34
0.0
 50
90.0
100
AcDbRotatedDimension
  0
DIMENSION
  5
4B2
330
4B0
100
AcDbEntity
  8
寸法線
  6
Continuous
100
AcDbDimension
  2
*D16
 10
6.625000817115967
 20
444.7000004060381
 30
0.0
 11
4.352273544388616
 21
292.2000004060381
 31
0.0
 12
-38.12499918288404
 22
-17.99999959396189
 32
0.0
  1
{\fMS UI Gothic|b0|i0|c128|p50;バケットのＢ寸法現合約305}
 71
     5
 42
305.0
  3
ISO-25
100
AcDbAlignedDimension
 13
11.25000081711596
 23
139.7000004060381
 33
0.0
 14
11.87500081711596
 24
444.7000004060381
 34
0.0
 50
90.0
100
AcDbRotatedDimension
  0
LINE
  5
4B3
330
4B0
100
AcDbEntity
  8
隠線
100
AcDbLine
 10
78.87500081711596
 20
432.2000004060381
 30
0.0
 11
78.87500081711596
 21
152.2000004060381
 31
0.0
  0
LINE
  5
4B4
330
4B0
100
AcDbEntity
  8
隠線
100
AcDbLine
 10
64.87500081711596
 20
432.2000004060381
 30
0.0
 11
64.87500081711596
 21
152.2000004060381
 31
0.0
  0
LINE
  5
4B5
330
4B0
100
AcDbEntity
  8
隠線
100
AcDbLine
 10
88.77449575372763
 20
152.2000004060381
 30
0.0
 11
88.77449575372763
 21
432.2000004060381
 31
0.0
  0
LINE
  5
4B6
330
4B0
100
AcDbEntity
  8
外形線
100
AcDbLine
 10
113.8750008171159
 20
144.3000004060381
 30
0.0
 11
113.875000817116
 21
440.1000004060381
 31
0.0
  0
LINE
  5
4B7
330
4B0
100
AcDbEntity
  8
外形線
100
AcDbLine
 10
103.8750008171159
 20
440.1000004060381
 30
0.0
 11
103.8750008171159
 21
144.3000004060381
 31
0.0
  0
LINE
  5
4B8
330
4B0
100
AcDbEntity
  8
外形線
100
AcDbLine
 10
18.87500081711596
 20
142.0000004060381
 30
0.0
 11
18.87500081711596
 21
442.400000406038
 31
0.0
  0
DIMENSION
  5
4B9
330
4B0
100
AcDbEntity
  8
寸法線
  6
Continuous
100
AcDbDimension
  2
*D15
 10
5.37500081711596
 20
139.7000004060381
 30
0.0
 11
3.500000817115932
 21
133.7000004060381
 31
0.0
 12
-38.12499918288404
 22
-17.99999959396189
 32
0.0
 71
     5
 42
11.99999999999997
  3
ISO-25
100
AcDbAlignedDimension
 13
26.37500081711596
 23
127.7000004060381
 33
0.0
 14
11.87500081711596
 24
139.7000004060381
 34
0.0
 50
90.0
100
AcDbRotatedDimension
  0
LINE
  5
4BA
330
4B0
100
AcDbEntity
  8
外形細線
100
AcDbLine
 10
31.37500081711596
 20
139.7000004060381
 30
0.0
 11
31.37500081711596
 21
127.7000004060381
 31
0.0
  0
LINE
  5
4BB
330
4B0
100
AcDbEntity
  8
外形細線
100
AcDbLine
 10
26.37500081711596
 20
139.7000004060381
 30
0.0
 11
26.37500081711596
 21
127.7000004060381
 31
0.0
  0
LINE
  5
4BC
330
4B0
100
AcDbEntity
  8
外形線
100
AcDbLine
 10
31.87500081711596
 20
127.9886755406329
 30
0.0
 11
31.87500081711596
 21
139.7000004060381
 31
0.0
  0
LINE
  5
4BD
330
4B0
100
AcDbEntity
  8
外形線
100
AcDbLine
 10
25.87500081711596
 20
139.7000004060381
 30
0.0
 11
25.87500081711596
 21
127.9886755406329
 31
0.0
  0
DIMENSION
  5
4BE
330
4B0
100
AcDbEntity
  8
寸法線
  6
Continuous
100
AcDbDimension
  2
*D12
 10
78.87500081711596
 20
6.750000406038111
 30
0.0
 11
96.37500081711596
 21
8.625000406038111
 31
0.0
 12
-38.12499918288404
 22
-17.99999959396189
 32
0.0
 71
     5
 42
35.0
  3
ISO-25
100
AcDbAlignedDimension
 13
113.8750008171159
 23
28.45000040603812
 33
0.0
 14
78.87500081711596
 24
29.70000040603812
 34
0.0
100
AcDbRotatedDimension
  0
DIMENSION
  5
4BF
330
4B0
100
AcDbEntity
  8
寸法線
  6
Continuous
100
AcDbDimension
  2
*D10
 10
113.8750008171159
 20
1.250000406038111
 30
0.0
 11
68.87500081711596
 21
1.250000406038111
 31
0.0
 12
-38.12499918288404
 22
-17.99999959396189
 32
0.0
 70
   128
 71
     5
 42
95.0
  3
ISO-25
100
AcDbAlignedDimension
 13
18.87500081711596
 23
32.00000040603811
 33
0.0
 14
113.8750008171159
 24
29.70000040603812
 34
0.0
100
AcDbRotatedDimension
  0
DIMENSION
  5
4C0
330
4B0
100
AcDbEntity
  8
寸法線
  6
Continuous
100
AcDbDimension
  2
*D9
 10
11.87500081711596
 20
1.500000406038111
 30
0.0
 11
15.37500081711596
 21
3.375000406038111
 31
0.0
 12
-38.12499918288404
 22
-17.99999959396189
 32
0.0
 71
     5
 42
7.0
  3
ISO-25
100
AcDbAlignedDimension
 13
18.87500081711596
 23
32.00000040603811
 33
0.0
 14
11.87500081711596
 24
32.00000040603811
 34
0.0
100
AcDbRotatedDimension
  0
DIMENSION
  5
4C1
330
4B0
100
AcDbEntity
  8
寸法線
  6
Continuous
100
AcDbDimension
  2
*D14
 10
104.3414374919692
 20
36.78356373118479
 30
0.0
 11
100.4965443692674
 21
43.2801072833362
 31
0.0
 12
-38.12499918288404
 22
-17.99999959396189
 32
0.0
 70
     1
  1
14
 71
     5
 42
14.62499999999999
  3
ISO-25
100
AcDbAlignedDimension
 13
78.87500081711596
 23
32.00000040603811
 33
0.0
 14
89.2164374919692
 24
21.65856373118484
 34
0.0
  0
DIMENSION
  5
4C2
330
4B0
100
AcDbEntity
  8
寸法線
  6
Continuous
100
AcDbDimension
  2
*D13
 10
103.8750008171159
 20
32.00000040603811
 30
0.0
 11
98.62500081711596
 21
23.00000040603813
 31
0.0
 12
-38.12499918288404
 22
-17.99999959396189
 32
0.0
 70
   130
 71
     5
 42
0.7853981633974474
  3
ISO-25
100
AcDb2LineAngularDimension
 13
78.87500081711596
 23
32.00000040603811
 33
0.0
 14
88.77449575372763
 24
22.10050546942644
 34
0.0
 15
11.87500081711596
 25
32.00000040603811
 35
0.0
 16
99.83943011736412
 26
26.38259850525725
 36
0.0
  0
DIMENSION
  5
4C3
330
4B0
100
AcDbEntity
  8
寸法線
  6
Continuous
100
AcDbDimension
  2
*D6
 10
142.8750008171159
 20
95.75000040603811
 30
0.0
 11
80.87500081711596
 21
97.62500040603811
 31
0.0
 12
-38.12499918288404
 22
-17.99999959396189
 32
0.0
 71
     5
 42
124.0
  3
ISO-25
100
AcDbAlignedDimension
 13
18.87500081711596
 23
82.00000040603811
 33
0.0
 14
142.8750008171159
 24
82.00000040603811
 34
0.0
100
AcDbRotatedDimension
  0
LINE
  5
4C4
330
4B0
100
AcDbEntity
  8
隠線
100
AcDbLine
 10
18.87500081711596
 20
34.30000040603811
 30
0.0
 11
103.8750008171159
 21
34.30000040603811
 31
0.0
  0
LINE
  5
4C5
330
4B0
100
AcDbEntity
  8
外形線
100
AcDbLine
 10
77.92230962365781
 20
29.70000040603811
 30
0.0
 11
87.14815015699855
 21
20.47415987269738
 31
0.0
  0
LINE
  5
4C6
330
4B0
100
AcDbEntity
  8
外形線
100
AcDbLine
 10
78.87500081711596
 20
32.00000040603811
 30
0.0
 11
88.77449575372763
 21
22.10050546942644
 31
0.0
  0
LINE
  5
4C7
330
4B0
100
AcDbEntity
  8
外形線
100
AcDbLine
 10
11.87500081711596
 20
32.00000040603811
 30
0.0
 11
103.8750008171159
 21
32.00000040603811
 31
0.0
  0
LINE
  5
4C8
330
4B0
100
AcDbEntity
  8
外形線
100
AcDbLine
 10
11.87500081711596
 20
82.00000040603811
 30
0.0
 11
142.8750008171159
 21
82.00000040603811
 31
0.0
  0
DIMENSION
  5
4C9
330
4B0
100
AcDbEntity
  8
寸法線
100
AcDbDimension
  2
*D4
 10
3.125000817115967
 20
32.00000040603812
 30
0.0
 11
3.12500081711596
 21
57.50000040603811
 31
0.0
 12
-38.12499918288404
 22
-17.99999959396189
 32
0.0
 70
   128
 71
     5
 42
50.0
  3
ISO-25
100
AcDbAlignedDimension
 13
11.87500081711596
 23
82.00000040603811
 33
0.0
 14
11.87500081711596
 24
32.00000040603811
 34
0.0
 50
90.0
100
AcDbRotatedDimension
  0
CIRCLE
  5
4CA
330
4B0
100
AcDbEntity
  8
外形線
100
AcDbCircle
 10
28.87500081711596
 20
72.00000040603811
 30
0.0
 40
2.5
  0
CIRCLE
  5
4CB
330
4B0
100
AcDbEntity
  8
外形細線
100
AcDbCircle
 10
28.87500081711596
 20
72.00000040603811
 30
0.0
 40
3.0
  0
LINE
  5
4CC
330
4B0
100
AcDbEntity
  8
隠線
100
AcDbLine
 10
18.87500081711596
 20
82.00000040603811
 30
0.0
 11
18.87500081711596
 21
32.00000040603811
 31
0.0
  0
LINE
  5
4CD
330
4B0
100
AcDbEntity
  8
外形線
100
AcDbLine
 10
39.87500081711596
 20
82.00000040603812
 30
0.0
 11
39.87500081711596
 21
32.00000040603813
 31
0.0
  0
LINE
  5
4CE
330
4B0
100
AcDbEntity
  8
外形線
100
AcDbLine
 10
11.87500081711596
 20
32.00000040603811
 30
0.0
 11
11.87500081711596
 21
82.00000040603811
 31
0.0
  0
DIMENSION
  5
4CF
330
4B0
100
AcDbEntity
  8
寸法線
  6
Continuous
100
AcDbDimension
  2
*D8
 10
39.87500081711596
 20
10.50000040603811
 30
0.0
 11
25.87500081711596
 21
12.37500040603811
 31
0.0
 12
-38.12499918288404
 22
-17.99999959396189
 32
0.0
 71
     5
 42
28.0
  3
ISO-25
100
AcDbAlignedDimension
 13
11.87500081711596
 23
32.00000040603811
 33
0.0
 14
39.87500081711596
 24
32.00000040603811
 34
0.0
100
AcDbRotatedDimension
  0
MTEXT
  5
4D0
330
4B0
100
AcDbEntity
  8
寸法線
  6
Continuous
100
AcDbMText
 10
23.87500081711596
 20
52.50000040603811
 30
0.0
 40
2.5
 41
16.0
 71
     1
 72
     5
  1
t2.3
 73
     1
 44
1.0
1001
ACAD
1000
MTEXTBEGIN
1070
    73
1070
     1
1070
    44
1040
1.0
1070
    74
1070
     0
1000
MTEXTEND
  0
LINE
  5
4D1
330
4B0
100
AcDbEntity
  8
外形線
100
AcDbLine
 10
64.87500081711596
 20
29.70000040603812
 30
0.0
 11
77.92230962365779
 21
29.70000040603812
 31
0.0
  0
LINE
  5
4D2
330
4B0
100
AcDbEntity
  8
外形線
100
AcDbLine
 10
64.87500081711596
 20
32.00000040603811
 30
0.0
 11
64.87500081711596
 21
29.70000040603812
 31
0.0
  0
LINE
  5
4D3
330
4B0
100
AcDbEntity
  8
外形線
100
AcDbLine
 10
78.87423494795413
 20
29.70000040603812
 30
0.0
 11
78.87500081711596
 21
29.70000040603812
 31
0.0
  0
MTEXT
  5
4D4
330
4B0
100
AcDbEntity
  8
寸法線
  6
Continuous
100
AcDbMText
 10
52.12500081711596
 20
53.00000040603811
 30
0.0
 40
2.5
 41
12.0
 71
     1
 72
     5
  1
t2.3
 73
     1
 44
1.0
1001
ACAD
1000
MTEXTBEGIN
1070
    73
1070
     1
1070
    44
1040
1.0
1070
    74
1070
     0
1000
MTEXTEND
  0
LEADER
  5
4D5
330
4B0
100
AcDbEntity
  8
寸法線
  6
Continuous
100
AcDbLeader
  3
ISO-25
 40
2.5
 41
9.166666666666666
 76
     3
 10
31.87500081711596
 20
127.9886755406329
 30
0.0
 10
41.62500081711596
 20
117.2500004060381
 30
0.0
 10
65.12500081711596
 20
117.2500004060381
 30
0.0
213
0.0
223
-1.25
233
0.0
1001
ACAD
1000
DSTYLE
1002
{
1070
   147
1040
0.625
1070
    77
1070
     0
1002
}
  0
DIMENSION
  5
4D6
330
4B0
100
AcDbEntity
  8
寸法線
  6
Continuous
100
AcDbDimension
  2
*D7
 10
28.87500081711596
 20
88.0000004060381
 30
0.0
 11
24.12500081711596
 21
88.0000004060381
 31
0.0
 12
-38.12499918288404
 22
-17.99999959396189
 32
0.0
 70
   128
 71
     5
 42
10.0
  3
ISO-25
100
AcDbAlignedDimension
 13
18.87500081711596
 23
82.00000040603811
 33
0.0
 14
28.87500081711596
 24
82.00000040603811
 34
0.0
100
AcDbRotatedDimension
  0
DIMENSION
  5
4D7
330
4B0
100
AcDbEntity
  8
寸法線
100
AcDbDimension
  2
*D5
 10
7.125000817115974
 20
72.00000040603811
 30
0.0
 11
7.12500081711596
 21
76.75000040603811
 31
0.0
 12
-38.12499918288404
 22
-17.99999959396189
 32
0.0
 70
   128
 71
     5
 42
10.0
  3
ISO-25
100
AcDbAlignedDimension
 13
11.87500081711596
 23
82.00000040603811
 33
0.0
 14
11.87500081711596
 24
72.00000040603811
 34
0.0
 50
90.0
100
AcDbRotatedDimension
  0
LINE
  5
4D8
330
4B0
100
AcDbEntity
  8
外形線
100
AcDbLine
 10
25.87500081711596
 20
127.9886755406329
 30
0.0
 11
31.87500081711596
 21
127.9886755406329
 31
0.0
  0
LINE
  5
4D9
330
4B0
100
AcDbEntity
  8
外形線
100
AcDbLine
 10
26.37500081711596
 20
127.7000004060381
 30
0.0
 11
31.37500081711596
 21
127.7000004060381
 31
0.0
  0
LINE
  5
4DA
330
4B0
100
AcDbEntity
  8
外形線
100
AcDbLine
 10
25.87500081711596
 20
127.9886755406329
 30
0.0
 11
26.37500081711596
 21
127.7000004060381
 31
0.0
  0
LINE
  5
4DB
330
4B0
100
AcDbEntity
  8
外形線
100
AcDbLine
 10
31.37500081711596
 20
127.7000004060381
 30
0.0
 11
31.87500081711596
 21
127.9886755406329
 31
0.0
  0
MTEXT
  5
4DC
330
4B0
100
AcDbEntity
  8
寸法線
  6
Continuous
100
AcDbMText
 10
49.87500041019689
 20
121.0000007607091
 30
0.0
 40
2.5
 41
0.0
 71
     1
 72
     1
  1
2-M6
 73
     1
 44
1.0
1001
ACAD
1000
MTEXTBEGIN
1070
    73
1070
     1
1070
    44
1040
1.0
1070
    74
1070
     0
1000
MTEXTEND
  0
LINE
  5
4DD
330
4B0
100
AcDbEntity
  8
外形線
100
AcDbLine
 10
113.8750008171159
 20
29.70000040603812
 30
0.0
 11
142.8750008171159
 21
82.00000040603811
 31
0.0
  0
DIMENSION
  5
4DE
330
4B0
100
AcDbEntity
  8
寸法線
  6
Continuous
100
AcDbDimension
  2
*D11
 10
103.8750008171159
 20
11.00000040603811
 30
0.0
 11
108.8750008171159
 21
12.87500040603811
 31
0.0
 12
-38.12499918288404
 22
-17.99999959396189
 32
0.0
 71
     5
 42
10.0
  3
ISO-25
100
AcDbAlignedDimension
 13
113.8750008171159
 23
29.07500040603812
 33
0.0
 14
103.8750008171159
 24
32.00000040603811
 34
0.0
100
AcDbRotatedDimension
  0
LINE
  5
4DF
330
4B0
100
AcDbEntity
  8
隠線
100
AcDbLine
 10
103.8750008171159
 20
34.30000040603811
 30
0.0
 11
115.0356160571417
 21
31.79310995960189
 31
0.0
  0
LINE
  5
4E0
330
4B0
100
AcDbEntity
  8
外形線
100
AcDbLine
 10
103.8750008171159
 20
32.00000040603811
 30
0.0
 11
113.8750008171159
 21
29.70000040603812
 31
0.0
  0
LINE
  5
4E1
330
4B0
100
AcDbEntity
  8
外形線
100
AcDbLine
 10
88.77449575372763
 20
22.10050546942644
 30
0.0
 11
87.14815015699855
 21
20.47415987269738
 31
0.0
  0
LINE
  5
4E2
330
4B0
100
AcDbEntity
  8
隠線
100
AcDbLine
 10
64.87500081711596
 20
152.2000004060381
 30
0.0
 11
88.77449575372763
 21
152.2000004060381
 31
0.0
  0
LINE
  5
4E3
330
4B0
100
AcDbEntity
  8
外形線
100
AcDbLine
 10
142.8750008171159
 20
144.3000004060381
 30
0.0
 11
22.85871767452445
 21
144.3000004060381
 31
0.0
  0
LINE
  5
4E4
330
4B0
100
AcDbEntity
  8
外形線
100
AcDbLine
 10
15.8587176745244
 20
142.0000004060381
 30
0.0
 11
142.8750008171159
 21
142.0000004060381
 31
0.0
  0
LINE
  5
4E5
330
4B0
100
AcDbEntity
  8
外形線
100
AcDbLine
 10
22.85871767452445
 20
144.3000004060381
 30
0.0
 11
18.87500081711596
 21
142.0000004060381
 31
0.0
  0
LINE
  5
4E6
330
4B0
100
AcDbEntity
  8
外形線
100
AcDbLine
 10
11.87500081711596
 20
139.7000004060381
 30
0.0
 11
39.87500081711596
 21
139.7000004060381
 31
0.0
  0
LINE
  5
4E7
330
4B0
100
AcDbEntity
  8
外形線
100
AcDbLine
 10
11.87500081711596
 20
139.7000004060381
 30
0.0
 11
15.8587176745244
 21
142.0000004060381
 31
0.0
  0
LINE
  5
4E8
330
4B0
100
AcDbEntity
  8
外形線
100
AcDbLine
 10
39.87500081711596
 20
139.7000004060381
 30
0.0
 11
39.87500081711596
 21
142.0000004060381
 31
0.0
  0
LINE
  5
4E9
330
4B0
100
AcDbEntity
  8
外形線
100
AcDbLine
 10
142.8750008171159
 20
142.0000004060381
 30
0.0
 11
142.8750008171159
 21
144.3000004060381
 31
0.0
  0
LINE
  5
4EA
330
4B0
100
AcDbEntity
  8
隠線
100
AcDbLine
 10
88.77449575372763
 20
432.2000004060381
 30
0.0
 11
64.87500081711596
 21
432.2000004060381
 31
0.0
  0
LINE
  5
4EB
330
4B0
100
AcDbEntity
  8
外形線
100
AcDbLine
 10
142.8750008171159
 20
442.400000406038
 30
0.0
 11
39.87500081711596
 21
442.400000406038
 31
0.0
  0
LINE
  5
4EC
330
4B0
100
AcDbEntity
  8
外形線
100
AcDbLine
 10
22.85871767452445
 20
440.100000406038
 30
0.0
 11
142.8750008171159
 21
440.1000004060381
 31
0.0
  0
DIMENSION
  5
4ED
330
4B0
100
AcDbEntity
  8
寸法線
  6
Continuous
100
AcDbDimension
  2
*D17
 10
6.62500081711596
 20
456.7000004060381
 30
0.0
 11
4.750000817115882
 21
450.7000004060381
 31
0.0
 12
-38.12499918288404
 22
-17.99999959396189
 32
0.0
 71
     5
 42
12.0
  3
ISO-25
100
AcDbAlignedDimension
 13
6.625000817115967
 23
444.7000004060381
 33
0.0
 14
26.37500081711596
 24
456.7000004060381
 34
0.0
 50
90.0
100
AcDbRotatedDimension
  0
LINE
  5
4EE
330
4B0
100
AcDbEntity
  8
外形線
100
AcDbLine
 10
39.87500081711596
 20
442.400000406038
 30
0.0
 11
15.8587176745244
 21
442.400000406038
 31
0.0
  0
LINE
  5
4EF
330
4B0
100
AcDbEntity
  8
外形線
100
AcDbLine
 10
11.87500081711596
 20
444.7000004060381
 30
0.0
 11
39.87500081711596
 21
444.7000004060381
 31
0.0
  0
LINE
  5
4F0
330
4B0
100
AcDbEntity
  8
外形線
100
AcDbLine
 10
22.85871767452445
 20
440.100000406038
 30
0.0
 11
18.87500081711596
 21
442.400000406038
 31
0.0
  0
LINE
  5
4F1
330
4B0
100
AcDbEntity
  8
外形線
100
AcDbLine
 10
11.87500081711596
 20
444.7000004060381
 30
0.0
 11
15.8587176745244
 21
442.400000406038
 31
0.0
  0
LINE
  5
4F2
330
4B0
100
AcDbEntity
  8
外形細線
100
AcDbLine
 10
31.37500081711596
 20
456.7000004060381
 30
0.0
 11
31.37500081711596
 21
444.7000004060381
 31
0.0
  0
LINE
  5
4F3
330
4B0
100
AcDbEntity
  8
外形細線
100
AcDbLine
 10
26.37500081711596
 20
456.7000004060381
 30
0.0
 11
26.37500081711596
 21
444.7000004060381
 31
0.0
  0
LINE
  5
4F4
330
4B0
100
AcDbEntity
  8
外形線
100
AcDbLine
 10
31.87500081711596
 20
456.4113252714433
 30
0.0
 11
31.87500081711596
 21
444.700000406038
 31
0.0
  0
LINE
  5
4F5
330
4B0
100
AcDbEntity
  8
外形線
100
AcDbLine
 10
25.87500081711596
 20
444.7000004060381
 30
0.0
 11
25.87500081711596
 21
456.4113252714433
 31
0.0
  0
LINE
  5
4F6
330
4B0
100
AcDbEntity
  8
外形線
100
AcDbLine
 10
39.87500081711596
 20
444.7000004060381
 30
0.0
 11
39.87500081711596
 21
442.400000406038
 31
0.0
  0
LINE
  5
4F7
330
4B0
100
AcDbEntity
  8
外形線
100
AcDbLine
 10
142.8750008171159
 20
440.1000004060381
 30
0.0
 11
142.8750008171159
 21
442.400000406038
 31
0.0
  0
ENDBLK
  5
4F9
330
4B0
100
AcDbEntity
  8
0
100
AcDbBlockEnd
  0
BLOCK
  5
7AC
330
7A7
100
AcDbEntity
  8
0
100
AcDbBlockBegin
  2
A$C593659E6
 70
     0
 10
0.0
 20
0.0
 30
0.0
  3
A$C593659E6
  1

  0
LWPOLYLINE
  5
7A8
330
7A7
100
AcDbEntity
  8
外形線
100
AcDbPolyline
 90
        4
 70
     1
 43
0.0
 10
-0.0000001634330147
 20
23.19999971638102
 10
99.99999983656699
 20
23.19999971638102
 10
99.99999983656699
 20
3.199999716381014
 10
-0.0000001634330147
 20
3.199999716381014
  0
LWPOLYLINE
  5
7A9
330
7A7
100
AcDbEntity
  8
外形線
100
AcDbPolyline
 90
        4
 70
     1
 43
0.0
 10
-0.0000001634330147
 20
3.199999716381014
 10
99.99999983656699
 20
3.199999716381014
 10
99.99999983656699
 20
-0.0000002836189879
 10
-0.0000001634330147
 20
-0.0000002836189879
  0
LINE
  5
7AA
330
7A7
100
AcDbEntity
  8
隠線
100
AcDbLine
 10
1.599999836566986
 20
23.19999971638102
 30
0.0
 11
1.599999836566986
 21
3.199999716381014
 31
0.0
  0
LINE
  5
7AB
330
7A7
100
AcDbEntity
  8
隠線
100
AcDbLine
 10
98.39999983656699
 20
23.19999971638102
 30
0.0
 11
98.39999983656699
 21
3.199999716381022
 31
0.0
  0
ENDBLK
  5
7AD
330
7A7
100
AcDbEntity
  8
0
100
AcDbBlockEnd
  0
BLOCK
  5
7BB
330
7B4
100
AcDbEntity
  8
0
100
AcDbBlockBegin
  2
sws08
 70
     0
 10
0.0
 20
0.0
 30
0.0
  3
sws08
  1

  0
LINE
  5
7B5
330
7B4
100
AcDbEntity
  8
0
  6
ByBlock
 62
     0
 48
0.3
100
AcDbLine
 10
-2.0
 20
7.699999999999988
 30
0.0
 11
-2.0
 21
-7.700000000000017
 31
0.0
  0
LINE
  5
7B6
330
7B4
100
AcDbEntity
  8
0
  6
ByBlock
 62
     0
 48
0.3
100
AcDbLine
 10
0.0
 20
7.699999999999988
 30
0.0
 11
0.0
 21
-7.700000000000017
 31
0.0
  0
LINE
  5
7B7
330
7B4
100
AcDbEntity
  8
0
  6
ByBlock
 62
     0
 48
0.3
100
AcDbLine
 10
0.0
 20
-7.700000000000017
 30
0.0
 11
-2.0
 21
-7.700000000000017
 31
0.0
  0
LINE
  5
7B8
330
7B4
100
AcDbEntity
  8
0
  6
ByBlock
 62
     0
 48
0.3
100
AcDbLine
 10
-2.0
 20
-0.6820596645951582
 30
0.0
 11
-0.0000000000000284
 21
-0.1461612797329224
 31
0.0
  0
LINE
  5
7B9
330
7B4
100
AcDbEntity
  8
0
  6
ByBlock
 62
     0
 48
0.3
100
AcDbLine
 10
-1.999999999999971
 20
0.1461612797328939
 30
0.0
 11
0.0
 21
0.6820596645951298
 31
0.0
  0
LINE
  5
7BA
330
7B4
100
AcDbEntity
  8
0
  6
ByBlock
 62
     0
 48
0.3
100
AcDbLine
 10
0.0
 20
7.699999999999988
 30
0.0
 11
-2.0
 21
7.699999999999988
 31
0.0
  0
ENDBLK
  5
7BC
330
7B4
100
AcDbEntity
  8
0
100
AcDbBlockEnd
  0
BLOCK
  5
7D1
330
7BF
100
AcDbEntity
  8
0
100
AcDbBlockBegin
  2
hb20812
 70
     0
 10
0.0
 20
0.0
 30
0.0
  3
hb20812
  1

  0
LINE
  5
7C0
330
7BF
100
AcDbEntity
  8
0
  6
ByBlock
 62
     0
100
AcDbLine
 10
3.249999999999943
 20
0.0
 30
0.0
 11
3.249999999999943
 21
-11.55000000000001
 31
0.0
  0
LINE
  5
7C1
330
7BF
100
AcDbEntity
  8
0
  6
ByBlock
 62
     0
100
AcDbLine
 10
-3.25
 20
0.0
 30
0.0
 11
-3.25
 21
-11.55000000000001
 31
0.0
  0
LINE
  5
7C2
330
7BF
100
AcDbEntity
  8
0
  6
ByBlock
 62
     0
100
AcDbLine
 10
3.999999999999943
 20
-10.80000000000001
 30
0.0
 11
-4.0
 21
-10.80000000000001
 31
0.0
  0
LINE
  5
7C3
330
7BF
100
AcDbEntity
  8
0
  6
ByBlock
 62
     0
100
AcDbLine
 10
2.79999999999994
 20
-12.00000000000003
 30
0.0
 11
-2.800000000000011
 21
-12.00000000000003
 31
0.0
  0
LINE
  5
7C4
330
7BF
100
AcDbEntity
  8
0
  6
ByBlock
 62
     0
100
AcDbLine
 10
3.999999999999943
 20
-10.80000000000001
 30
0.0
 11
2.79999999999994
 21
-12.00000000000003
 31
0.0
  0
LINE
  5
7C5
330
7BF
100
AcDbEntity
  8
0
  6
ByBlock
 62
     0
100
AcDbLine
 10
-4.0
 20
-10.80000000000001
 30
0.0
 11
-2.800000000000011
 21
-12.00000000000003
 31
0.0
  0
LINE
  5
7C6
330
7BF
100
AcDbEntity
  8
0
  6
ByBlock
 62
     0
100
AcDbLine
 10
3.999999999999943
 20
0.0
 30
0.0
 11
3.999999999999943
 21
-10.80000000000001
 31
0.0
  0
LINE
  5
7C7
330
7BF
100
AcDbEntity
  8
0
  6
ByBlock
 62
     0
100
AcDbLine
 10
-4.0
 20
0.0
 30
0.0
 11
-4.0
 21
-10.80000000000001
 31
0.0
  0
LINE
  5
7C8
330
7BF
100
AcDbEntity
  8
0
  6
ByBlock
 62
     0
100
AcDbLine
 10
0.0
 20
0.0
 30
0.0
 11
0.0
 21
4.803975707500001
 31
0.0
  0
ARC
  5
7C9
330
7BF
100
AcDbEntity
  8
0
  6
ByBlock
 62
     0
100
AcDbCircle
 10
3.249999999999943
 20
-4.002705164642406
 30
0.0
 40
9.387235164642333
100
AcDbArc
 50
69.74443448302342
 51
110.255413431582
  0
ARC
  5
7CA
330
7BF
100
AcDbEntity
  8
0
  6
ByBlock
 62
     0
100
AcDbCircle
 10
-3.25
 20
-4.002705164642406
 30
0.0
 40
9.387235164642333
100
AcDbArc
 50
69.74443448302342
 51
110.255413431582
  0
LINE
  5
7CB
330
7BF
100
AcDbEntity
  8
0
  6
ByBlock
 62
     0
100
AcDbLine
 10
6.29999999999994
 20
5.5
 30
0.0
 11
-6.300000000000011
 21
5.5
 31
0.0
  0
LINE
  5
7CC
330
7BF
100
AcDbEntity
  8
0
  6
ByBlock
 62
     0
100
AcDbLine
 10
6.499999999999943
 20
5.299999999999897
 30
0.0
 11
6.29999999999994
 21
5.5
 31
0.0
  0
LINE
  5
7CD
330
7BF
100
AcDbEntity
  8
0
  6
ByBlock
 62
     0
100
AcDbLine
 10
-6.5
 20
5.299999999999897
 30
0.0
 11
-6.300000000000011
 21
5.5
 31
0.0
  0
LINE
  5
7CE
330
7BF
100
AcDbEntity
  8
0
  6
ByBlock
 62
     0
100
AcDbLine
 10
6.499999999999943
 20
0.0
 30
0.0
 11
6.499999999999943
 21
5.299999999999897
 31
0.0
  0
LINE
  5
7CF
330
7BF
100
AcDbEntity
  8
0
  6
ByBlock
 62
     0
100
AcDbLine
 10
-6.5
 20
0.0
 30
0.0
 11
-6.5
 21
5.299999999999897
 31
0.0
  0
LINE
  5
7D0
330
7BF
100
AcDbEntity
  8
0
  6
ByBlock
 62
     0
100
AcDbLine
 10
6.499999999999943
 20
0.0
 30
0.0
 11
-6.5
 21
0.0
 31
0.0
  0
ENDBLK
  5
7D2
330
7BF
100
AcDbEntity
  8
0
100
AcDbBlockEnd
  0
BLOCK
  5
7E4
330
7DA
100
AcDbEntity
  8
0
100
AcDbBlockBegin
  2
n12s08
 70
     0
 10
0.0
 20
0.0
 30
0.0
  3
n12s08
  1

  0
ARC
  5
7DB
330
7DA
100
AcDbEntity
  8
0
  6
ByBlock
 62
     0
100
AcDbCircle
 10
3.03159145222358
 20
3.250003448275805
 30
0.0
 40
9.387235164642333
100
AcDbArc
 50
159.7444458007812
 51
200.2555541992187
  0
LINE
  5
7DC
330
7DA
100
AcDbEntity
  8
0
  6
ByBlock
 62
     0
100
AcDbLine
 10
-6.499981212418674
 20
6.250003448275805
 30
0.0
 11
-6.499981212418674
 21
-6.249996551724137
 31
0.0
  0
LINE
  5
7DD
330
7DA
100
AcDbEntity
  8
0
  6
ByBlock
 62
     0
100
AcDbLine
 10
0.0000187875813253
 20
6.500003448275805
 30
0.0
 11
0.0000187875813253
 21
-6.499996551724137
 31
0.0
  0
LINE
  5
7DE
330
7DA
100
AcDbEntity
  8
0
  6
ByBlock
 62
     0
100
AcDbLine
 10
0.0000187875813253
 20
0.0000034482758622
 30
0.0
 11
-5.775089419918685
 21
0.0000034482758622
 31
0.0
  0
LINE
  5
7DF
330
7DA
100
AcDbEntity
  8
0
  6
ByBlock
 62
     0
100
AcDbLine
 10
0.0000187875813253
 20
-6.499996551724137
 30
0.0
 11
-6.355643712418668
 21
-6.499996551724137
 31
0.0
  0
ARC
  5
7E0
330
7DA
100
AcDbEntity
  8
0
  6
ByBlock
 62
     0
100
AcDbCircle
 10
3.03159145222358
 20
-3.249996551724137
 30
0.0
 40
9.387235164642333
100
AcDbArc
 50
159.7444458007812
 51
200.2555541992187
  0
LINE
  5
7E1
330
7DA
100
AcDbEntity
  8
0
  6
ByBlock
 62
     0
100
AcDbLine
 10
-6.355643712418668
 20
-6.499996551724137
 30
0.0
 11
-6.499981212418674
 21
-6.249996551724137
 31
0.0
  0
LINE
  5
7E2
330
7DA
100
AcDbEntity
  8
0
  6
ByBlock
 62
     0
100
AcDbLine
 10
0.0000187875813253
 20
6.500003448275805
 30
0.0
 11
-6.355643712418668
 21
6.500003448275805
 31
0.0
  0
LINE
  5
7E3
330
7DA
100
AcDbEntity
  8
0
  6
ByBlock
 62
     0
100
AcDbLine
 10
-6.355643712418668
 20
6.500003448275805
 30
0.0
 11
-6.499981212418674
 21
6.250003448275805
 31
0.0
  0
ENDBLK
  5
7E5
330
7DA
100
AcDbEntity
  8
0
100
AcDbBlockEnd
  0
BLOCK
  5
972
330
96F
100
AcDbEntity
  8
0
100
AcDbBlockBegin
  2
tapf08n
 70
     0
 10
0.0
 20
0.0
 30
0.0
  3
tapf08n
  1

  0
CIRCLE
  5
970
330
96F
100
AcDbEntity
  8
0
  6
ByBlock
 62
     7
370
    25
100
AcDbCircle
 10
0.0000341022967518
 20
0.0000034482758764
 30
0.0
 40
4.0
  0
CIRCLE
  5
971
330
96F
100
AcDbEntity
  8
0
  6
ByBlock
 62
     0
100
AcDbCircle
 10
0.0000341022967518
 20
0.0000034482758764
 30
0.0
 40
3.299999999999999
  0
ENDBLK
  5
973
330
96F
100
AcDbEntity
  8
0
100
AcDbBlockEnd
  0
BLOCK
  5
9C6
330
9C1
100
AcDbEntity
  8
0
100
AcDbBlockBegin
  2
tapf04
 70
     0
 10
0.0
 20
0.0
 30
0.0
  3
tapf04
  1

  0
CIRCLE
  5
9C2
330
9C1
100
AcDbEntity
  8
0
  6
ByBlock
 62
     7
370
    25
100
AcDbCircle
 10
0.0
 20
0.0
 30
0.0
 40
2.0
  0
LINE
  5
9C3
330
9C1
100
AcDbEntity
  8
0
  6
CENTER
 62
     7
370
    25
100
AcDbLine
 10
0.0
 20
-5.651778502292927
 30
0.0
 11
0.0
 21
5.651778502293154
 31
0.0
  0
LINE
  5
9C4
330
9C1
100
AcDbEntity
  8
0
  6
CENTER
 62
     7
370
    25
100
AcDbLine
 10
5.651778502293097
 20
0.0
 30
0.0
 11
-5.651778502293126
 21
0.0
 31
0.0
  0
CIRCLE
  5
9C5
330
9C1
100
AcDbEntity
  8
0
  6
ByBlock
 62
     0
100
AcDbCircle
 10
0.0
 20
0.0
 30
0.0
 40
1.649999999999999
  0
ENDBLK
  5
9C7
330
9C1
100
AcDbEntity
  8
0
100
AcDbBlockEnd
  0
BLOCK
  5
9CD
330
9C8
100
AcDbEntity
  8
0
100
AcDbBlockBegin
  2
tapf03
 70
     0
 10
0.0
 20
0.0
 30
0.0
  3
tapf03
  1

  0
LINE
  5
9C9
330
9C8
100
AcDbEntity
  8
0
  6
CENTER
 62
     7
370
    25
100
AcDbLine
 10
0.0
 20
-4.581212723078351
 30
0.0
 11
0.0
 21
4.581212723078408
 31
0.0
  0
LINE
  5
9CA
330
9C8
100
AcDbEntity
  8
0
  6
CENTER
 62
     7
370
    25
100
AcDbLine
 10
4.581212723078351
 20
0.0
 30
0.0
 11
-4.581212723078436
 21
0.0
 31
0.0
  0
CIRCLE
  5
9CB
330
9C8
100
AcDbEntity
  8
0
  6
ByBlock
 62
     7
370
    25
100
AcDbCircle
 10
0.0
 20
0.0
 30
0.0
 40
1.5
  0
CIRCLE
  5
9CC
330
9C8
100
AcDbEntity
  8
0
  6
ByBlock
 62
     0
100
AcDbCircle
 10
0.0
 20
0.0
 30
0.0
 40
1.25
  0
ENDBLK
  5
9CE
330
9C8
100
AcDbEntity
  8
0
100
AcDbBlockEnd
  0
BLOCK
  5
AA7
330
A9B
100
AcDbEntity
  8
0
100
AcDbBlockBegin
  2
n13s08
 70
     0
 10
0.0
 20
0.0
 30
0.0
  3
n13s08
  1

  0
ARC
  5
A9C
330
A9B
100
AcDbEntity
  8
0
  6
ByBlock
 62
     0
100
AcDbCircle
 10
3.576549244124294
 20
0.0000034482758622
 30
0.0
 40
10.07653045654297
100
AcDbArc
 50
158.1346069180965
 51
201.8653930819034
  0
LINE
  5
A9D
330
A9B
100
AcDbEntity
  8
0
  6
ByBlock
 62
     0
100
AcDbLine
 10
-6.499981212418674
 20
6.250003448275805
 30
0.0
 11
-6.499981212418674
 21
-6.249996551724137
 31
0.0
  0
LINE
  5
A9E
330
A9B
100
AcDbEntity
  8
0
  6
ByBlock
 62
     0
100
AcDbLine
 10
0.0000187875813253
 20
7.505553448275804
 30
0.0
 11
0.0000187875813253
 21
-7.505546551724137
 31
0.0
  0
LINE
  5
A9F
330
A9B
100
AcDbEntity
  8
0
  6
ByBlock
 62
     0
100
AcDbLine
 10
0.0000187875813253
 20
-3.752771551724137
 30
0.0
 11
-5.775089419918572
 21
-3.752771551724137
 31
0.0
  0
LINE
  5
AA0
330
A9B
100
AcDbEntity
  8
0
  6
ByBlock
 62
     0
100
AcDbLine
 10
0.0000187875813253
 20
-7.505546551724137
 30
0.0
 11
-5.775089419918572
 21
-7.505546551724137
 31
0.0
  0
ARC
  5
AA1
330
A9B
100
AcDbEntity
  8
0
  6
ByBlock
 62
     0
100
AcDbCircle
 10
-2.525089549821018
 20
-5.629159051724144
 30
0.0
 40
3.752776145935058
100
AcDbArc
 50
150.0000105759271
 51
209.9999894240729
  0
LINE
  5
AA2
330
A9B
100
AcDbEntity
  8
0
  6
ByBlock
 62
     0
100
AcDbLine
 10
-5.775089419918572
 20
-7.505546551724137
 30
0.0
 11
-6.499981212418674
 21
-6.249996551724137
 31
0.0
  0
LINE
  5
AA3
330
A9B
100
AcDbEntity
  8
0
  6
ByBlock
 62
     0
100
AcDbLine
 10
0.0000187875813253
 20
3.752778448275805
 30
0.0
 11
-5.775089419918572
 21
3.752778448275805
 31
0.0
  0
LINE
  5
AA4
330
A9B
100
AcDbEntity
  8
0
  6
ByBlock
 62
     0
100
AcDbLine
 10
0.0000187875813253
 20
7.505553448275804
 30
0.0
 11
-5.775089419918572
 21
7.505553448275804
 31
0.0
  0
ARC
  5
AA5
330
A9B
100
AcDbEntity
  8
0
  6
ByBlock
 62
     0
100
AcDbCircle
 10
-2.525089549821018
 20
5.629165948275797
 30
0.0
 40
3.752776145935058
100
AcDbArc
 50
150.0000105759271
 51
209.9999894240729
  0
LINE
  5
AA6
330
A9B
100
AcDbEntity
  8
0
  6
ByBlock
 62
     0
100
AcDbLine
 10
-5.775089419918572
 20
7.505553448275804
 30
0.0
 11
-6.499981212418674
 21
6.250003448275805
 31
0.0
  0
ENDBLK
  5
AA8
330
A9B
100
AcDbEntity
  8
0
100
AcDbBlockEnd
  0
BLOCK
  5
B8C
330
B8B
100
AcDbEntity
  8
0
100
AcDbBlockBegin
  2
crfn04
 70
     0
 10
0.0
 20
0.0
 30
0.0
  3
crfn04
  1

  0
CIRCLE
  5
B8D
330
B8B
100
AcDbEntity
  8
0
  6
ByBlock
 62
     0
100
AcDbCircle
 10
0.0
 20
0.0
 30
0.0
 40
4.0
  0
ARC
  5
B8E
330
B8B
100
AcDbEntity
  8
0
  6
ByBlock
 62
     0
100
AcDbCircle
 10
2.30000000000001
 20
2.299999999999997
 30
0.0
 40
2.012499999999988
100
AcDbArc
 50
180.0
 51
270.0
  0
ARC
  5
B8F
330
B8B
100
AcDbEntity
  8
0
  6
ByBlock
 62
     0
100
AcDbCircle
 10
-2.30000000000001
 20
2.299999999999997
 30
0.0
 40
2.012499999999988
100
AcDbArc
 50
270.0
 51
0.0
  0
ARC
  5
B90
330
B8B
100
AcDbEntity
  8
0
  6
ByBlock
 62
     0
100
AcDbCircle
 10
-2.30000000000001
 20
-2.299999999999997
 30
0.0
 40
2.012499999999988
100
AcDbArc
 50
0.0
 51
90.0
  0
LINE
  5
B91
330
B8B
100
AcDbEntity
  8
0
  6
ByBlock
 62
     0
100
AcDbLine
 10
-0.2874999999999943
 20
-2.299999999999997
 30
0.0
 11
0.2875000000000227
 21
-2.299999999999997
 31
0.0
  0
LINE
  5
B92
330
B8B
100
AcDbEntity
  8
0
  6
ByBlock
 62
     0
100
AcDbLine
 10
-2.30000000000001
 20
-0.2875000000000085
 30
0.0
 11
-2.30000000000001
 21
0.2875000000000085
 31
0.0
  0
ARC
  5
B93
330
B8B
100
AcDbEntity
  8
0
  6
ByBlock
 62
     0
100
AcDbCircle
 10
2.30000000000001
 20
-2.299999999999997
 30
0.0
 40
2.012499999999988
100
AcDbArc
 50
90.0
 51
180.0
  0
LINE
  5
B94
330
B8B
100
AcDbEntity
  8
0
  6
ByBlock
 62
     0
100
AcDbLine
 10
2.30000000000001
 20
0.2875000000000085
 30
0.0
 11
2.30000000000001
 21
-0.2875000000000085
 31
0.0
  0
LINE
  5
B95
330
B8B
100
AcDbEntity
  8
0
  6
ByBlock
 62
     0
100
AcDbLine
 10
-0.2874999999999943
 20
2.299999999999997
 30
0.0
 11
0.2875000000000227
 21
2.299999999999997
 31
0.0
  0
ENDBLK
  5
B96
330
B8B
100
AcDbEntity
  8
0
100
AcDbBlockEnd
  0
BLOCK
  5
B98
330
B97
100
AcDbEntity
  8
0
100
AcDbBlockBegin
  2
crsm0400
 70
     0
 10
0.0
 20
0.0
 30
0.0
  3
crsm0400
  1

  0
ARC
  5
B99
330
B97
100
AcDbEntity
  8
0
  6
ByBlock
 62
     0
100
AcDbCircle
 10
8.5
 20
0.0
 30
0.0
 40
9.5
100
AcDbArc
 50
153.7617174556802
 51
206.2382825443198
  0
LINE
  5
B9A
330
B97
100
AcDbEntity
  8
0
  6
ByBlock
 62
     0
100
AcDbLine
 10
0.0
 20
-4.199999999999988
 30
0.0
 11
0.0
 21
4.200000000000017
 31
0.0
  0
ENDBLK
  5
B9B
330
B97
100
AcDbEntity
  8
0
100
AcDbBlockEnd
  0
BLOCK
  5
BE8
330
BE7
100
AcDbEntity
  8
0
100
AcDbBlockBegin
  2
*D32
 70
     1
 10
0.0
 20
0.0
 30
0.0
  3
*D32
  1

  0
LINE
  5
BEA
330
BE7
100
AcDbEntity
  8
0
 62
     0
370
    -2
100
AcDbLine
 10
305.0
 20
136.8
 30
0.0
 11
285.1846517861714
 21
136.8
 31
0.0
  0
LINE
  5
BEB
330
BE7
100
AcDbEntity
  8
0
 62
     0
370
    -2
100
AcDbLine
 10
305.0
 20
110.8
 30
0.0
 11
285.1846517861714
 21
110.8
 31
0.0
  0
LINE
  5
BEC
330
BE7
100
AcDbEntity
  8
0
 62
     0
370
    -2
100
AcDbLine
 10
288.9346517861714
 20
129.3
 30
0.0
 11
288.9346517861714
 21
118.3
 31
0.0
  0
SOLID
  5
BED
330
BE7
100
AcDbEntity
  8
0
 62
     0
100
AcDbTrace
 10
287.6846517861714
 20
129.3
 30
0.0
 11
290.1846517861714
 21
129.3
 31
0.0
 12
288.9346517861714
 22
136.8
 32
0.0
 13
288.9346517861714
 23
136.8
 33
0.0
  0
SOLID
  5
BEE
330
BE7
100
AcDbEntity
  8
0
 62
     0
100
AcDbTrace
 10
287.6846517861713
 20
118.3
 30
0.0
 11
290.1846517861713
 21
118.3
 31
0.0
 12
288.9346517861714
 22
110.8
 32
0.0
 13
288.9346517861714
 23
110.8
 33
0.0
  0
MTEXT
  5
BEF
330
BE7
100
AcDbEntity
  8
0
 62
     0
100
AcDbMText
 10
283.308913597195
 20
123.8
 30
0.0
 40
7.5
 41
0.0
 71
     5
 72
     1
  1
26
 11
0.0000000000000001
 21
1.0
 31
0.0
 73
     1
 44
1.0
1001
ACAD
1000
MTEXTBEGIN
1070
    73
1070
     1
1070
    44
1040
1.0
1070
    74
1070
     0
1000
MTEXTEND
  0
POINT
  5
BF0
330
BE7
100
AcDbEntity
  8
Defpoints
 62
     0
100
AcDbPoint
 10
306.5
 20
136.8
 30
0.0
  0
POINT
  5
BF1
330
BE7
100
AcDbEntity
  8
Defpoints
 62
     0
100
AcDbPoint
 10
306.5
 20
110.8
 30
0.0
  0
POINT
  5
BF2
330
BE7
100
AcDbEntity
  8
Defpoints
 62
     0
100
AcDbPoint
 10
288.9346517861714
 20
110.8
 30
0.0
  0
ENDBLK
  5
BE9
330
BE7
100
AcDbEntity
  8
0
100
AcDbBlockEnd
  0
BLOCK
  5
BF5
330
BF4
100
AcDbEntity
  8
0
100
AcDbBlockBegin
  2
*D33
 70
     1
 10
0.0
 20
0.0
 30
0.0
  3
*D33
  1

  0
LINE
  5
BF7
330
BF4
100
AcDbEntity
  8
0
 62
     0
370
    -2
100
AcDbLine
 10
308.0
 20
110.8
 30
0.0
 11
323.1758049590198
 21
110.8
 31
0.0
  0
LINE
  5
BF8
330
BF4
100
AcDbEntity
  8
0
 62
     0
370
    -2
100
AcDbLine
 10
278.0
 20
45.8
 30
0.0
 11
323.1758049590198
 21
45.8
 31
0.0
  0
LINE
  5
BF9
330
BF4
100
AcDbEntity
  8
0
 62
     0
370
    -2
100
AcDbLine
 10
319.4258049590199
 20
103.3
 30
0.0
 11
319.4258049590199
 21
53.3
 31
0.0
  0
SOLID
  5
BFA
330
BF4
100
AcDbEntity
  8
0
 62
     0
100
AcDbTrace
 10
318.1758049590198
 20
103.3
 30
0.0
 11
320.6758049590198
 21
103.3
 31
0.0
 12
319.4258049590199
 22
110.8
 32
0.0
 13
319.4258049590199
 23
110.8
 33
0.0
  0
SOLID
  5
BFB
330
BF4
100
AcDbEntity
  8
0
 62
     0
100
AcDbTrace
 10
318.1758049590198
 20
53.3
 30
0.0
 11
320.6758049590198
 21
53.3
 31
0.0
 12
319.4258049590199
 22
45.8
 32
0.0
 13
319.4258049590199
 23
45.8
 33
0.0
  0
MTEXT
  5
BFC
330
BF4
100
AcDbEntity
  8
0
 62
     0
100
AcDbMText
 10
313.8008049590198
 20
78.30000000000007
 30
0.0
 40
7.5
 41
0.0
 71
     5
 72
     1
  1
65
 11
0.0000000000000001
 21
1.0
 31
0.0
 73
     1
 44
1.0
1001
ACAD
1000
MTEXTBEGIN
1070
    73
1070
     1
1070
    44
1040
1.0
1070
    74
1070
     0
1000
MTEXTEND
  0
POINT
  5
BFD
330
BF4
100
AcDbEntity
  8
Defpoints
 62
     0
100
AcDbPoint
 10
306.5
 20
110.8
 30
0.0
  0
POINT
  5
BFE
330
BF4
100
AcDbEntity
  8
Defpoints
 62
     0
100
AcDbPoint
 10
276.5
 20
45.8
 30
0.0
  0
POINT
  5
BFF
330
BF4
100
AcDbEntity
  8
Defpoints
 62
     0
100
AcDbPoint
 10
319.4258049590199
 20
45.8
 30
0.0
  0
ENDBLK
  5
BF6
330
BF4
100
AcDbEntity
  8
0
100
AcDbBlockEnd
  0
BLOCK
  5
C77
330
C76
100
AcDbEntity
  8
0
100
AcDbBlockBegin
  2
*D38
 70
     1
 10
0.0
 20
0.0
 30
0.0
  3
*D38
  1

  0
LINE
  5
C86
330
C76
100
AcDbEntity
  8
寸法線
 62
     0
370
    -2
100
AcDbLine
 10
104.5
 20
768.1352913291487
 30
0.0
 11
104.5
 21
556.5936982068697
 31
0.0
  0
LINE
  5
C87
330
C76
100
AcDbEntity
  8
寸法線
 62
     0
370
    -2
100
AcDbLine
 10
501.4882348870062
 20
768.1352913291487
 30
0.0
 11
501.4882348870062
 21
556.5936982068697
 31
0.0
  0
LINE
  5
C88
330
C76
100
AcDbEntity
  8
寸法線
 62
     0
370
    -2
100
AcDbLine
 10
117.0
 20
562.8436982068697
 30
0.0
 11
488.9882348870062
 21
562.8436982068697
 31
0.0
  0
SOLID
  5
C89
330
C76
100
AcDbEntity
  8
寸法線
 62
     0
100
AcDbTrace
 10
117.0
 20
564.9270315402031
 30
0.0
 11
117.0
 21
560.7603648735363
 31
0.0
 12
104.5
 22
562.8436982068697
 32
0.0
 13
104.5
 23
562.8436982068697
 33
0.0
  0
SOLID
  5
C8A
330
C76
100
AcDbEntity
  8
寸法線
 62
     0
100
AcDbTrace
 10
488.9882348870062
 20
564.9270315402031
 30
0.0
 11
488.9882348870062
 21
560.7603648735363
 31
0.0
 12
501.4882348870062
 22
562.8436982068697
 32
0.0
 13
501.4882348870062
 23
562.8436982068697
 33
0.0
  0
MTEXT
  5
C8B
330
C76
100
AcDbEntity
  8
寸法線
 62
     0
100
AcDbMText
 10
302.9941174435031
 20
572.2186982068697
 30
0.0
 40
12.5
 41
0.0
 71
     5
 72
     1
  1
397
 73
     1
 44
1.0
1001
ACAD
1000
MTEXTBEGIN
1070
    73
1070
     1
1070
    44
1040
1.0
1070
    74
1070
     0
1000
MTEXTEND
  0
POINT
  5
C8C
330
C76
100
AcDbEntity
  8
Defpoints
 62
     0
100
AcDbPoint
 10
104.5
 20
770.6352913291486
 30
0.0
  0
POINT
  5
C8D
330
C76
100
AcDbEntity
  8
Defpoints
 62
     0
100
AcDbPoint
 10
501.4882348870062
 20
770.6352913291486
 30
0.0
  0
POINT
  5
C8E
330
C76
100
AcDbEntity
  8
Defpoints
 62
     0
100
AcDbPoint
 10
501.4882348870062
 20
562.8436982068697
 30
0.0
  0
ENDBLK
  5
C78
330
C76
100
AcDbEntity
  8
0
100
AcDbBlockEnd
  0
BLOCK
  5
C91
330
C90
100
AcDbEntity
  8
0
100
AcDbBlockBegin
  2
*D39
 70
     1
 10
0.0
 20
0.0
 30
0.0
  3
*D39
  1

  0
LINE
  5
C93
330
C90
100
AcDbEntity
  8
寸法線
 62
     0
370
    -2
100
AcDbLine
 10
503.9882348870062
 20
834.1352913291485
 30
0.0
 11
539.3883043764109
 21
834.1352913291485
 31
0.0
  0
LINE
  5
C94
330
C90
100
AcDbEntity
  8
寸法線
 62
     0
370
    -2
100
AcDbLine
 10
503.9882348870062
 20
707.1352913291486
 30
0.0
 11
539.3883043764108
 21
707.1352913291486
 31
0.0
  0
LINE
  5
C95
330
C90
100
AcDbEntity
  8
寸法線
 62
     0
370
    -2
100
AcDbLine
 10
533.1383043764109
 20
821.6352913291485
 30
0.0
 11
533.1383043764108
 21
719.6352913291486
 31
0.0
  0
SOLID
  5
C96
330
C90
100
AcDbEntity
  8
寸法線
 62
     0
100
AcDbTrace
 10
531.0549710430775
 20
821.6352913291485
 30
0.0
 11
535.2216377097443
 21
821.6352913291485
 31
0.0
 12
533.1383043764109
 22
834.1352913291485
 32
0.0
 13
533.1383043764109
 23
834.1352913291485
 33
0.0
  0
SOLID
  5
C97
330
C90
100
AcDbEntity
  8
寸法線
 62
     0
100
AcDbTrace
 10
531.0549710430774
 20
719.6352913291486
 30
0.0
 11
535.2216377097441
 21
719.6352913291486
 31
0.0
 12
533.1383043764108
 22
707.1352913291486
 32
0.0
 13
533.1383043764108
 23
707.1352913291486
 33
0.0
  0
MTEXT
  5
C98
330
C90
100
AcDbEntity
  8
寸法線
 62
     0
100
AcDbMText
 10
523.7620740614501
 20
770.6352913291486
 30
0.0
 40
12.5
 41
0.0
 71
     5
 72
     1
  1
127
 11
0.0000000000000001
 21
1.0
 31
0.0
 73
     1
 44
1.0
1001
ACAD
1000
MTEXTBEGIN
1070
    73
1070
     1
1070
    44
1040
1.0
1070
    74
1070
     0
1000
MTEXTEND
  0
POINT
  5
C99
330
C90
100
AcDbEntity
  8
Defpoints
 62
     0
100
AcDbPoint
 10
501.4882348870062
 20
834.1352913291485
 30
0.0
  0
POINT
  5
C9A
330
C90
100
AcDbEntity
  8
Defpoints
 62
     0
100
AcDbPoint
 10
501.4882348870062
 20
707.1352913291486
 30
0.0
  0
POINT
  5
C9B
330
C90
100
AcDbEntity
  8
Defpoints
 62
     0
100
AcDbPoint
 10
533.1383043764108
 20
707.1352913291486
 30
0.0
  0
ENDBLK
  5
C92
330
C90
100
AcDbEntity
  8
0
100
AcDbBlockEnd
  0
BLOCK
  5
C9E
330
C9D
100
AcDbEntity
  8
0
100
AcDbBlockBegin
  2
*D40
 70
     1
 10
0.0
 20
0.0
 30
0.0
  3
*D40
  1

  0
LINE
  5
CA0
330
C9D
100
AcDbEntity
  8
寸法線
 62
     0
370
    -2
100
AcDbLine
 10
279.0
 20
594.1352913291487
 30
0.0
 11
579.6248666852561
 21
594.1352913291487
 31
0.0
  0
LINE
  5
CA1
330
C9D
100
AcDbEntity
  8
寸法線
 62
     0
370
    -2
100
AcDbLine
 10
279.0
 20
947.1352913291486
 30
0.0
 11
579.6248666852561
 21
947.1352913291486
 31
0.0
  0
LINE
  5
CA2
330
C9D
100
AcDbEntity
  8
寸法線
 62
     0
370
    -2
100
AcDbLine
 10
573.3748666852561
 20
606.6352913291487
 30
0.0
 11
573.3748666852561
 21
934.6352913291486
 31
0.0
  0
SOLID
  5
CA3
330
C9D
100
AcDbEntity
  8
寸法線
 62
     0
100
AcDbTrace
 10
571.2915333519227
 20
606.6352913291487
 30
0.0
 11
575.4582000185894
 21
606.6352913291487
 31
0.0
 12
573.3748666852561
 22
594.1352913291487
 32
0.0
 13
573.3748666852561
 23
594.1352913291487
 33
0.0
  0
SOLID
  5
CA4
330
C9D
100
AcDbEntity
  8
寸法線
 62
     0
100
AcDbTrace
 10
571.2915333519227
 20
934.6352913291486
 30
0.0
 11
575.4582000185895
 21
934.6352913291486
 31
0.0
 12
573.3748666852561
 22
947.1352913291486
 32
0.0
 13
573.3748666852561
 23
947.1352913291486
 33
0.0
  0
MTEXT
  5
CA5
330
C9D
100
AcDbEntity
  8
寸法線
 62
     0
100
AcDbMText
 10
563.9998666852559
 20
770.6352913291488
 30
0.0
 40
12.5
 41
0.0
 71
     5
 72
     1
  1
353
 11
0.0000000000000001
 21
1.0
 31
0.0
 73
     1
 44
1.0
1001
ACAD
1000
MTEXTBEGIN
1070
    73
1070
     1
1070
    44
1040
1.0
1070
    74
1070
     0
1000
MTEXTEND
  0
POINT
  5
CA6
330
C9D
100
AcDbEntity
  8
Defpoints
 62
     0
100
AcDbPoint
 10
276.5
 20
594.1352913291487
 30
0.0
  0
POINT
  5
CA7
330
C9D
100
AcDbEntity
  8
Defpoints
 62
     0
100
AcDbPoint
 10
276.5
 20
947.1352913291486
 30
0.0
  0
POINT
  5
CA8
330
C9D
100
AcDbEntity
  8
Defpoints
 62
     0
100
AcDbPoint
 10
573.3748666852561
 20
947.1352913291486
 30
0.0
  0
ENDBLK
  5
C9F
330
C9D
100
AcDbEntity
  8
0
100
AcDbBlockEnd
  0
BLOCK
  5
CAB
330
CAA
100
AcDbEntity
  8
0
100
AcDbBlockBegin
  2
*D41
 70
     1
 10
0.0
 20
0.0
 30
0.0
  3
*D41
  1

  0
LINE
  5
CAD
330
CAA
100
AcDbEntity
  8
寸法線
 62
     0
370
    -2
100
AcDbLine
 10
274.0
 20
422.0
 30
0.0
 11
44.04951347600039
 21
422.0
 31
0.0
  0
LINE
  5
CAE
330
CAA
100
AcDbEntity
  8
寸法線
 62
     0
370
    -2
100
AcDbLine
 10
102.0
 20
160.0
 30
0.0
 11
44.04951347600034
 21
160.0
 31
0.0
  0
LINE
  5
CAF
330
CAA
100
AcDbEntity
  8
寸法線
 62
     0
370
    -2
100
AcDbLine
 10
50.29951347600039
 20
409.5
 30
0.0
 11
50.29951347600034
 21
172.5
 31
0.0
  0
SOLID
  5
CB0
330
CAA
100
AcDbEntity
  8
寸法線
 62
     0
100
AcDbTrace
 10
48.21618014266706
 20
409.5
 30
0.0
 11
52.38284680933373
 21
409.5
 31
0.0
 12
50.29951347600039
 22
422.0
 32
0.0
 13
50.29951347600039
 23
422.0
 33
0.0
  0
SOLID
  5
CB1
330
CAA
100
AcDbEntity
  8
寸法線
 62
     0
100
AcDbTrace
 10
48.216180142667
 20
172.5
 30
0.0
 11
52.38284680933368
 21
172.5
 31
0.0
 12
50.29951347600034
 22
160.0
 32
0.0
 13
50.29951347600034
 23
160.0
 33
0.0
  0
MTEXT
  5
CB2
330
CAA
100
AcDbEntity
  8
寸法線
 62
     0
100
AcDbMText
 10
40.92328316103969
 20
291.0000000000001
 30
0.0
 40
12.5
 41
0.0
 71
     5
 72
     1
  1
262
 11
0.0000000000000001
 21
1.0
 31
0.0
 73
     1
 44
1.0
1001
ACAD
1000
MTEXTBEGIN
1070
    73
1070
     1
1070
    44
1040
1.0
1070
    74
1070
     0
1000
MTEXTEND
  0
POINT
  5
CB3
330
CAA
100
AcDbEntity
  8
Defpoints
 62
     0
100
AcDbPoint
 10
276.5
 20
422.0
 30
0.0
  0
POINT
  5
CB4
330
CAA
100
AcDbEntity
  8
Defpoints
 62
     0
100
AcDbPoint
 10
104.5
 20
160.0
 30
0.0
  0
POINT
  5
CB5
330
CAA
100
AcDbEntity
  8
Defpoints
 62
     0
100
AcDbPoint
 10
50.29951347600034
 20
160.0
 30
0.0
  0
ENDBLK
  5
CAC
330
CAA
100
AcDbEntity
  8
0
100
AcDbBlockEnd
  0
BLOCK
  5
CB8
330
CB7
100
AcDbEntity
  8
0
100
AcDbBlockBegin
  2
*D42
 70
     1
 10
0.0
 20
0.0
 30
0.0
  3
*D42
  1

  0
LINE
  5
CBA
330
CB7
100
AcDbEntity
  8
寸法線
 62
     0
370
    -2
100
AcDbLine
 10
102.0
 20
160.0
 30
0.0
 11
44.04951347600034
 21
160.0
 31
0.0
  0
LINE
  5
CBB
330
CB7
100
AcDbEntity
  8
寸法線
 62
     0
370
    -2
100
AcDbLine
 10
109.25
 20
100.0
 30
0.0
 11
44.04951347600031
 21
100.0
 31
0.0
  0
LINE
  5
CBC
330
CB7
100
AcDbEntity
  8
寸法線
 62
     0
370
    -2
100
AcDbLine
 10
50.29951347600034
 20
147.5
 30
0.0
 11
50.29951347600033
 21
112.5
 31
0.0
  0
SOLID
  5
CBD
330
CB7
100
AcDbEntity
  8
寸法線
 62
     0
100
AcDbTrace
 10
48.216180142667
 20
147.5
 30
0.0
 11
52.38284680933368
 21
147.5
 31
0.0
 12
50.29951347600034
 22
160.0
 32
0.0
 13
50.29951347600034
 23
160.0
 33
0.0
  0
SOLID
  5
CBE
330
CB7
100
AcDbEntity
  8
寸法線
 62
     0
100
AcDbTrace
 10
48.216180142667
 20
112.5
 30
0.0
 11
52.38284680933367
 21
112.5
 31
0.0
 12
50.29951347600032
 22
100.0
 32
0.0
 13
50.29951347600032
 23
100.0
 33
0.0
  0
MTEXT
  5
CBF
330
CB7
100
AcDbEntity
  8
寸法線
 62
     0
100
AcDbMText
 10
40.92451347600031
 20
130.0
 30
0.0
 40
12.5
 41
0.0
 71
     5
 72
     1
  1
60
 11
0.0000000000000001
 21
1.0
 31
0.0
 73
     1
 44
1.0
1001
ACAD
1000
MTEXTBEGIN
1070
    73
1070
     1
1070
    44
1040
1.0
1070
    74
1070
     0
1000
MTEXTEND
  0
POINT
  5
CC0
330
CB7
100
AcDbEntity
  8
Defpoints
 62
     0
100
AcDbPoint
 10
104.5
 20
160.0
 30
0.0
  0
POINT
  5
CC1
330
CB7
100
AcDbEntity
  8
Defpoints
 62
     0
100
AcDbPoint
 10
111.75
 20
100.0
 30
0.0
  0
POINT
  5
CC2
330
CB7
100
AcDbEntity
  8
Defpoints
 62
     0
100
AcDbPoint
 10
50.29951347600032
 20
100.0
 30
0.0
  0
ENDBLK
  5
CB9
330
CB7
100
AcDbEntity
  8
0
100
AcDbBlockEnd
  0
BLOCK
  5
CC5
330
CC4
100
AcDbEntity
  8
0
100
AcDbBlockBegin
  2
*D43
 70
     1
 10
0.0
 20
0.0
 30
0.0
  3
*D43
  1

  0
LINE
  5
CC7
330
CC4
100
AcDbEntity
  8
寸法線
 62
     0
370
    -2
100
AcDbLine
 10
109.25
 20
100.0
 30
0.0
 11
44.04951347600031
 21
100.0
 31
0.0
  0
LINE
  5
CC8
330
CC4
100
AcDbEntity
  8
寸法線
 62
     0
370
    -2
100
AcDbLine
 10
274.0
 20
21.79999999999996
 30
0.0
 11
44.04951347600031
 21
21.80000000000002
 31
0.0
  0
LINE
  5
CC9
330
CC4
100
AcDbEntity
  8
寸法線
 62
     0
370
    -2
100
AcDbLine
 10
50.29951347600032
 20
87.50000000000001
 30
0.0
 11
50.29951347600031
 21
34.30000000000001
 31
0.0
  0
SOLID
  5
CCA
330
CC4
100
AcDbEntity
  8
寸法線
 62
     0
100
AcDbTrace
 10
48.21618014266699
 20
87.50000000000001
 30
0.0
 11
52.38284680933366
 21
87.50000000000001
 31
0.0
 12
50.29951347600032
 22
100.0
 32
0.0
 13
50.29951347600032
 23
100.0
 33
0.0
  0
SOLID
  5
CCB
330
CC4
100
AcDbEntity
  8
寸法線
 62
     0
100
AcDbTrace
 10
48.21618014266698
 20
34.30000000000001
 30
0.0
 11
52.38284680933364
 21
34.30000000000001
 31
0.0
 12
50.29951347600031
 22
21.80000000000002
 32
0.0
 13
50.29951347600031
 23
21.80000000000002
 33
0.0
  0
MTEXT
  5
CCC
330
CC4
100
AcDbEntity
  8
寸法線
 62
     0
100
AcDbMText
 10
40.92328316103968
 20
60.90000000000003
 30
0.0
 40
12.5
 41
0.0
 71
     5
 72
     1
  1
78.2
 11
0.0000000000000001
 21
1.0
 31
0.0
 73
     1
 44
1.0
1001
ACAD
1000
MTEXTBEGIN
1070
    73
1070
     1
1070
    44
1040
1.0
1070
    74
1070
     0
1000
MTEXTEND
  0
POINT
  5
CCD
330
CC4
100
AcDbEntity
  8
Defpoints
 62
     0
100
AcDbPoint
 10
111.75
 20
100.0
 30
0.0
  0
POINT
  5
CCE
330
CC4
100
AcDbEntity
  8
Defpoints
 62
     0
100
AcDbPoint
 10
276.5
 20
21.79999999999996
 30
0.0
  0
POINT
  5
CCF
330
CC4
100
AcDbEntity
  8
Defpoints
 62
     0
100
AcDbPoint
 10
50.29951347600031
 20
21.80000000000002
 30
0.0
  0
ENDBLK
  5
CC6
330
CC4
100
AcDbEntity
  8
0
100
AcDbBlockEnd
  0
BLOCK
  5
CD8
330
CD7
100
AcDbEntity
  8
0
100
AcDbBlockBegin
  2
*D44
 70
     1
 10
0.0
 20
0.0
 30
0.0
  3
*D44
  1

  0
LINE
  5
D0C
330
CD7
100
AcDbEntity
  8
寸法線
 62
     0
370
    -2
100
AcDbLine
 10
220.25
 20
424.5
 30
0.0
 11
220.25
 21
449.8825544472738
 31
0.0
  0
LINE
  5
D0D
330
CD7
100
AcDbEntity
  8
寸法線
 62
     0
370
    -2
100
AcDbLine
 10
332.75
 20
424.5
 30
0.0
 11
332.75
 21
449.8825544472738
 31
0.0
  0
LINE
  5
D0E
330
CD7
100
AcDbEntity
  8
寸法線
 62
     0
370
    -2
100
AcDbLine
 10
232.75
 20
443.6325544472738
 30
0.0
 11
320.25
 21
443.6325544472738
 31
0.0
  0
SOLID
  5
D0F
330
CD7
100
AcDbEntity
  8
寸法線
 62
     0
100
AcDbTrace
 10
232.75
 20
445.7158877806072
 30
0.0
 11
232.75
 21
441.5492211139405
 31
0.0
 12
220.25
 22
443.6325544472738
 32
0.0
 13
220.25
 23
443.6325544472738
 33
0.0
  0
SOLID
  5
D10
330
CD7
100
AcDbEntity
  8
寸法線
 62
     0
100
AcDbTrace
 10
320.25
 20
445.7158877806072
 30
0.0
 11
320.25
 21
441.5492211139405
 31
0.0
 12
332.75
 22
443.6325544472738
 32
0.0
 13
332.75
 23
443.6325544472738
 33
0.0
  0
MTEXT
  5
D11
330
CD7
100
AcDbEntity
  8
寸法線
 62
     0
100
AcDbMText
 10
276.5
 20
453.0087847622344
 30
0.0
 40
12.5
 41
0.0
 71
     5
 72
     1
  1
内径112.5
 73
     1
 44
1.0
1001
ACAD
1000
MTEXTBEGIN
1070
    73
1070
     1
1070
    44
1040
1.0
1070
    74
1070
     0
1000
MTEXTEND
  0
POINT
  5
D12
330
CD7
100
AcDbEntity
  8
Defpoints
 62
     0
100
AcDbPoint
 10
220.25
 20
422.0
 30
0.0
  0
POINT
  5
D13
330
CD7
100
AcDbEntity
  8
Defpoints
 62
     0
100
AcDbPoint
 10
332.75
 20
422.0
 30
0.0
  0
POINT
  5
D14
330
CD7
100
AcDbEntity
  8
Defpoints
 62
     0
100
AcDbPoint
 10
332.75
 20
443.6325544472738
 30
0.0
  0
ENDBLK
  5
CD9
330
CD7
100
AcDbEntity
  8
0
100
AcDbBlockEnd
  0
BLOCK
  5
CE6
330
CE5
100
AcDbEntity
  8
0
100
AcDbBlockBegin
  2
*D45
 70
     1
 10
0.0
 20
0.0
 30
0.0
  3
*D45
  1

  0
LINE
  5
D39
330
CE5
100
AcDbEntity
  8
寸法線
 62
     0
370
    -2
100
AcDbLine
 10
111.75
 20
97.5
 30
0.0
 11
111.75
 21
42.85656817952895
 31
0.0
  0
LINE
  5
D3A
330
CE5
100
AcDbEntity
  8
寸法線
 62
     0
370
    -2
100
AcDbLine
 10
221.25
 20
97.5
 30
0.0
 11
221.25
 21
42.85656817952895
 31
0.0
  0
LINE
  5
D3B
330
CE5
100
AcDbEntity
  8
寸法線
 62
     0
370
    -2
100
AcDbLine
 10
124.25
 20
49.10656817952895
 30
0.0
 11
208.75
 21
49.10656817952895
 31
0.0
  0
SOLID
  5
D3C
330
CE5
100
AcDbEntity
  8
寸法線
 62
     0
100
AcDbTrace
 10
124.25
 20
51.18990151286229
 30
0.0
 11
124.25
 21
47.02323484619561
 31
0.0
 12
111.75
 22
49.10656817952895
 32
0.0
 13
111.75
 23
49.10656817952895
 33
0.0
  0
SOLID
  5
D3D
330
CE5
100
AcDbEntity
  8
寸法線
 62
     0
100
AcDbTrace
 10
208.75
 20
51.18990151286229
 30
0.0
 11
208.75
 21
47.02323484619561
 31
0.0
 12
221.25
 22
49.10656817952895
 32
0.0
 13
221.25
 23
49.10656817952895
 33
0.0
  0
MTEXT
  5
D3E
330
CE5
100
AcDbEntity
  8
寸法線
 62
     0
100
AcDbMText
 10
166.7586252432256
 20
68.89823484619562
 30
0.0
 40
12.5
 41
0.0
 71
     5
 72
     1
  1
外径\P109.5
 73
     1
 44
1.0
1001
ACAD
1000
MTEXTBEGIN
1070
    73
1070
     1
1070
    44
1040
1.0
1070
    74
1070
     0
1000
MTEXTEND
  0
POINT
  5
D3F
330
CE5
100
AcDbEntity
  8
Defpoints
 62
     0
100
AcDbPoint
 10
111.75
 20
100.0
 30
0.0
  0
POINT
  5
D40
330
CE5
100
AcDbEntity
  8
Defpoints
 62
     0
100
AcDbPoint
 10
221.25
 20
100.0
 30
0.0
  0
POINT
  5
D41
330
CE5
100
AcDbEntity
  8
Defpoints
 62
     0
100
AcDbPoint
 10
221.25
 20
49.10656817952895
 30
0.0
  0
ENDBLK
  5
CE7
330
CE5
100
AcDbEntity
  8
0
100
AcDbBlockEnd
  0
ENDSEC
  0
SECTION
  2
ENTITIES
  0
INSERT
  5
26E
330
1F
100
AcDbEntity
  8
ASHADE
 62
     1
100
AcDbBlockReference
  2
AVE_RENDER
 10
0.0
 20
0.0
 30
0.0
1001
AVE_RENDER
1002
{
1070
     7
1000
Pref
1070
    30
1070
    20
1070
     1
1070
     0
1000

1070
    10
1070
     1
1070
    10
1040
1.0
1070
     1
1040
0.3
1040
0.7
1040
0.0
1040
10.0
1010
-1.0
1020
-1.0
1030
-1.0
1040
0.3
1070
    49
1070
     0
1070
     0
1010
1.0
1020
1.0
1030
1.0
1040
45.0
1070
     1
1070
     0
1000
WCS
1040
0.0
1070
     0
1040
10.0
1002
}
  0
INSERT
  5
26F
330
1F
100
AcDbEntity
  8
ASHADE
 62
     3
100
AcDbBlockReference
  2
AVE_RENDER
 10
0.0
 20
0.0
 30
0.0
1001
AVE_RENDER
1002
{
1070
     0
1000
Full Opt
1070
     0
1070
     1
1070
     1
1070
     1
1070
     0
1070
     0
1070
     0
1070
     1
1070
     1
1040
0.0001
1040
0.0001
1002
}
  0
INSERT
  5
270
330
1F
100
AcDbEntity
  8
ASHADE
 62
     4
100
AcDbBlockReference
  2
AVE_RENDER
 10
0.0
 20
0.0
 30
0.0
1001
AVE_RENDER
1002
{
1070
     0
1000
Quick Opt
1070
     0
1070
     1
1070
     1
1070
     1
1070
     0
1070
     0
1070
     1
1002
}
  0
INSERT
  5
271
330
1F
100
AcDbEntity
  8
ASHADE
 62
     5
100
AcDbBlockReference
  2
AVE_RENDER
 10
0.0
 20
0.0
 30
0.0
1001
AVE_RENDER
1002
{
1070
     1
1000
Scanl Opt
1070
     2
1070
     0
1070
     2
1040
2.0
1040
4.0
1070
     0
1070
     1
1070
     0
1040
0.03
1002
}
  0
INSERT
  5
272
330
1F
100
AcDbEntity
  8
ASHADE
 62
     6
100
AcDbBlockReference
  2
AVE_RENDER
 10
0.0
 20
0.0
 30
0.0
1001
AVE_RENDER
1002
{
1070
     2
1000
Raytr Opt
1070
     2
1070
     0
1070
     2
1040
2.0
1040
4.0
1070
     0
1070
     1
1070
     1
1040
0.03
1070
     3
1040
0.03
1002
}
  0
INSERT
  5
273
330
1F
100
AcDbEntity
  8
ASHADE
 62
     7
100
AcDbBlockReference
  2
AVE_RENDER
 10
0.0
 20
0.0
 30
0.0
1001
AVE_RENDER
1002
{
1070
     0
1000
RFile Opt
1070
     1
1070
   640
1070
   480
1070
 10000
1070
     1
1070
     8
1070
     8
1070
     0
1070
     0
1070
     0
1070
     0
1070
     0
1070
     0
1070
     0
1002
}
  0
INSERT
  5
274
330
1F
100
AcDbEntity
  8
ASHADE
 62
     8
100
AcDbBlockReference
  2
AVE_RENDER
 10
0.0
 20
0.0
 30
0.0
1001
AVE_RENDER
1002
{
1070
     0
1000
Fog Opt
1070
     0
1070
     0
1040
0.0
1040
1.0
1040
0.0
1040
1.0
1010
0.5
1020
0.5
1030
0.5
1002
}
  0
INSERT
  5
275
330
1F
100
AcDbEntity
  8
ASHADE
 62
     9
100
AcDbBlockReference
  2
AVE_RENDER
 10
0.0
 20
0.0
 30
0.0
1001
AVE_RENDER
1002
{
1070
     0
1000
BG Opt
1070
     0
1070
     1
1010
1.0
1020
1.0
1030
0.99
1010
1.0
1020
0.0
1030
0.0
1010
0.0
1020
1.0
1030
0.0
1010
0.0
1020
0.0
1030
1.0
1040
0.5
1040
0.33
1040
0.0
1000

1070
     1
1000

1070
     1
1070
     1
1040
1.0
1040
1.0
1040
0.0
1040
0.0
1070
     0
1002
}
  0
INSERT
  5
27C
330
1F
100
AcDbEntity
  8
ASHADE
 62
     1
100
AcDbBlockReference
  2
AVE_GLOBAL
 10
0.0
 20
0.0
 30
0.0
1001
AVE_MATERIAL
1002
{
1000
*GLOBAL*
1000
2
1000
Global finish.
1002
{
1002
}
1002
{
1070
    63
1002
{
1002
{
1010
-1.0
1020
-1.0
1030
-1.0
1002
}
1040
0.1000000014901161
1000

1040
0.0
1002
{
1002
}
1040
0.0
1002
{
1002
}
1040
0.0
1002
}
1002
{
1002
{
1010
-1.0
1020
-1.0
1030
-1.0
1002
}
1040
0.6999999880790711
1000

1040
0.0
1002
{
1002
}
1040
0.0
1002
{
1002
}
1040
0.0
1002
}
1002
{
1002
{
1010
-1.0
1020
-1.0
1030
-1.0
1002
}
1040
0.2000000029802322
1000

1040
0.0
1002
{
1002
}
1040
0.0
1002
{
1002
}
1040
0.0
1002
}
1002
{
1070
     0
1002
{
1070
     1
1002
{
1040
1.0
1040
1.0
1000

1040
0.0
1002
{
1002
}
1040
0.0
1002
{
1002
}
1040
0.0
1002
}
1002
}
1040
1.0
1040
0.0
1040
0.0
1002
}
1002
{
1040
1.0
1040
1.0
1000

1040
0.0
1002
{
1002
}
1040
0.0
1002
{
1002
}
1040
0.0
1002
}
1002
{
1040
0.5
1040
1.0
1000

1040
0.0
1002
{
1002
}
1040
0.0
1002
{
1002
}
1040
0.0
1002
}
1002
{
1070
     0
1040
0.0
1002
{
1002
}
1040
1.0
1002
{
1002
}
1040
0.0
1002
}
1002
{
1040
0.0
1002
{
1002
{
1010
0.0
1020
0.0
1030
0.0
1002
}
1040
1.0
1000

1040
0.0
1002
{
1002
}
1040
0.0
1002
{
1002
}
1040
0.0
1002
}
1002
}
1002
{
1002
{
1070
     1
1002
{
1040
0.0
1040
1.0
1000

1040
0.0
1002
{
1002
}
1040
0.0
1002
{
1002
}
1040
0.0
1002
}
1002
}
1040
0.0
1002
{
1002
}
1010
1.0
1020
0.0
1030
0.0
1010
0.0
1020
1.0
1030
0.0
1010
0.0
1020
0.0
1030
1.0
1070
     0
1002
}
1002
{
1002
{
1040
1.0
1040
1.0
1002
{
1070
     1
1002
{
1040
1.0
1040
1.0
1000

1040
0.0
1002
{
1002
}
1040
0.0
1002
{
1002
}
1040
0.0
1002
}
1002
}
1002
}
1070
     0
1040
0.0
1002
{
1002
}
1002
}
1002
{
1002
}
1002
}
1002
{
1071
        3
1070
     3
1070
     0
1002
{
1070
     2
1070
     0
1070
     0
1040
0.0
1002
}
1070
     0
1070
     2
1002
{
1002
}
1002
}
1002
{
1040
8030.0
1040
190.3000030517578
1040
0.3050000071525574
1040
228.0
1040
545.0
1040
14.0
1040
17.39999961853027
1040
0.4560000002384186
1002
}
1002
}
  0
LINE
  5
58F
330
1F
100
AcDbEntity
  8
センター線
100
AcDbLine
 10
276.5000000000001
 20
219.9999999999999
 30
0.0
 11
276.5
 21
79.99999999999994
 31
0.0
  0
LINE
  5
5FD
330
1F
100
AcDbEntity
  8
外形線
100
AcDbLine
 10
197.5
 20
400.1999999999999
 30
0.0
 11
219.0
 21
400.1999999999999
 31
0.0
  0
LINE
  5
5FE
330
1F
100
AcDbEntity
  8
センター線
100
AcDbLine
 10
276.5
 20
420.1999999999999
 30
0.0
 11
276.5
 21
172.2
 31
0.0
  0
LINE
  5
5FF
330
1F
100
AcDbEntity
  8
外形線
100
AcDbLine
 10
94.88817065767831
 20
207.4516470157844
 30
0.0
 11
178.8333477131209
 21
395.2
 31
0.0
  0
LINE
  5
600
330
1F
100
AcDbEntity
  8
外形線
100
AcDbLine
 10
104.5
 20
192.1999999999999
 30
0.0
 11
197.5
 21
400.1999999999999
 31
0.0
  0
LINE
  5
601
330
1F
100
AcDbEntity
  8
外形線
100
AcDbLine
 10
94.88817065767831
 20
207.4516470157844
 30
0.0
 11
108.5817357481091
 21
201.3290433936206
 31
0.0
  0
LINE
  5
602
330
1F
100
AcDbEntity
  8
外形線
100
AcDbLine
 10
197.5
 20
400.1999999999999
 30
0.0
 11
178.8333477131209
 21
395.2
 31
0.0
  0
CIRCLE
  5
603
330
1F
100
AcDbEntity
  8
外形線
100
AcDbCircle
 10
115.5645761515949
 20
236.5460838697799
 30
0.0
 40
3.0
  0
CIRCLE
  5
604
330
1F
100
AcDbEntity
  8
外形線
100
AcDbCircle
 10
172.7088766251237
 20
364.352691380468
 30
0.0
 40
3.0
  0
LINE
  5
605
330
1F
100
AcDbEntity
  8
外形線
100
AcDbLine
 10
455.4882348870062
 20
213.3194711739091
 30
0.0
 11
374.1666522868791
 21
395.2
 31
0.0
  0
LINE
  5
606
330
1F
100
AcDbEntity
  8
外形線
100
AcDbLine
 10
355.5
 20
400.1999999999999
 30
0.0
 11
445.0124999999999
 21
200.0
 31
0.0
  0
LINE
  5
607
330
1F
100
AcDbEntity
  8
外形線
100
AcDbLine
 10
455.4882348870062
 20
206.2785975718212
 30
0.0
 11
444.4182642518908
 21
201.3290433936206
 31
0.0
  0
CIRCLE
  5
608
330
1F
100
AcDbEntity
  8
外形線
100
AcDbCircle
 10
380.2911233748763
 20
364.352691380468
 30
0.0
 40
3.0
  0
LINE
  5
609
330
1F
100
AcDbEntity
  8
外形線
100
AcDbLine
 10
355.5
 20
400.1999999999999
 30
0.0
 11
374.1666522868791
 21
395.2
 31
0.0
  0
CIRCLE
  5
60A
330
1F
100
AcDbEntity
  8
外形線
100
AcDbCircle
 10
437.4354238484051
 20
236.5460838697799
 30
0.0
 40
3.0
  0
ELLIPSE
  5
6AF
330
1F
100
AcDbEntity
  8
外形線
100
AcDbEllipse
 10
401.3043468794256
 20
175.0
 30
0.0
 11
0.0
 21
4.5
 31
0.0
210
0.0
220
0.0
230
1.0
 40
0.698091206733832
 41
0.0
 42
6.283185307179586
  0
LINE
  5
6B0
330
1F
100
AcDbEntity
  8
外形線
100
AcDbLine
 10
331.75
 20
100.0
 30
0.0
 11
441.25
 21
100.0
 31
0.0
  0
LINE
  5
6B1
330
1F
100
AcDbEntity
  8
外形線
100
AcDbLine
 10
453.0
 20
150.0
 30
0.0
 11
276.5
 21
150.0
 31
0.0
  0
LINE
  5
6B2
330
1F
100
AcDbEntity
  8
外形線
100
AcDbLine
 10
276.5
 20
200.0
 30
0.0
 11
453.0
 21
200.0
 31
0.0
  0
LINE
  5
6B4
330
1F
100
AcDbEntity
  8
外形線
100
AcDbLine
 10
111.75
 20
100.0
 30
0.0
 11
221.25
 21
100.0
 31
0.0
  0
LINE
  5
6B5
330
1F
100
AcDbEntity
  8
外形線
100
AcDbLine
 10
276.5
 20
160.0
 30
0.0
 11
104.5
 21
160.0
 31
0.0
  0
LINE
  5
6B6
330
1F
100
AcDbEntity
  8
外形線
100
AcDbLine
 10
104.5
 20
162.3
 30
0.0
 11
276.5
 21
162.3
 31
0.0
  0
LINE
  5
6B9
330
1F
100
AcDbEntity
  8
外形線
100
AcDbLine
 10
111.75
 20
100.0
 30
0.0
 11
111.75
 21
162.3
 31
0.0
  0
LINE
  5
6BA
330
1F
100
AcDbEntity
  8
外形線
100
AcDbLine
 10
112.75
 20
162.3
 30
0.0
 11
112.75
 21
100.0
 31
0.0
  0
LWPOLYLINE
  5
6BB
330
1F
100
AcDbEntity
  8
外形線
100
AcDbPolyline
 90
        4
 70
     1
 43
0.0
 10
100.0
 20
200.0
 10
104.5
 20
200.0
 10
104.5
 20
150.0
 10
100.0
 20
150.0
  0
LINE
  5
6BE
330
1F
100
AcDbEntity
  8
外形線
100
AcDbLine
 10
324.5
 20
128.3
 30
0.0
 11
324.5
 21
125.7000341022985
 31
0.0
  0
LINE
  5
6BF
330
1F
100
AcDbEntity
  8
外形線
100
AcDbLine
 10
316.5
 20
125.699965897705
 30
0.0
 11
316.5
 21
128.3
 31
0.0
  0
LINE
  5
6C0
330
1F
100
AcDbEntity
  8
Defpoints
100
AcDbLine
 10
323.7999658977015
 20
128.3
 30
0.0
 11
323.7999658977015
 21
125.0
 31
0.0
  0
LINE
  5
6C1
330
1F
100
AcDbEntity
  8
Defpoints
100
AcDbLine
 10
317.1999658977051
 20
125.0
 30
0.0
 11
317.1999658977051
 21
128.3
 31
0.0
  0
LINE
  5
6C2
330
1F
100
AcDbEntity
  8
Defpoints
100
AcDbLine
 10
235.8000341022949
 20
125.0
 30
0.0
 11
235.8000341022949
 21
128.3
 31
0.0
  0
LINE
  5
6C3
330
1F
100
AcDbEntity
  8
Defpoints
100
AcDbLine
 10
229.2000341022986
 20
128.3
 30
0.0
 11
229.2000341022986
 21
125.0
 31
0.0
  0
LINE
  5
6C4
330
1F
100
AcDbEntity
  8
外形線
100
AcDbLine
 10
236.5
 20
125.699965897705
 30
0.0
 11
236.5
 21
128.3
 31
0.0
  0
LINE
  5
6C5
330
1F
100
AcDbEntity
  8
外形線
100
AcDbLine
 10
228.5
 20
128.3
 30
0.0
 11
228.5
 21
125.7000341022985
 31
0.0
  0
LINE
  5
6C6
330
1F
100
AcDbEntity
  8
外形線
100
AcDbLine
 10
331.75
 20
150.0
 30
0.0
 11
331.75
 21
100.0
 31
0.0
  0
LINE
  5
6C7
330
1F
100
AcDbEntity
  8
外形線
100
AcDbLine
 10
220.25
 20
162.3
 30
0.0
 11
220.25
 21
100.0
 31
0.0
  0
LINE
  5
6C8
330
1F
100
AcDbEntity
  8
外形線
100
AcDbLine
 10
221.25
 20
100.0
 30
0.0
 11
221.25
 21
162.3
 31
0.0
  0
LINE
  5
6CB
330
1F
100
AcDbEntity
  8
Defpoints
100
AcDbLine
 10
228.5
 20
125.7000341022985
 30
0.0
 11
236.5
 21
125.7000341022985
 31
0.0
  0
LINE
  5
6CC
330
1F
100
AcDbEntity
  8
外形線
100
AcDbLine
 10
229.2000341022986
 20
125.0
 30
0.0
 11
235.8000341022949
 21
125.0
 31
0.0
  0
LINE
  5
6CD
330
1F
100
AcDbEntity
  8
外形線
100
AcDbLine
 10
228.5
 20
125.7000341022985
 30
0.0
 11
229.2000341022986
 21
125.0
 31
0.0
  0
LINE
  5
6CE
330
1F
100
AcDbEntity
  8
外形線
100
AcDbLine
 10
235.8000341022949
 20
125.0
 30
0.0
 11
236.5
 21
125.699965897705
 31
0.0
  0
LINE
  5
6CF
330
1F
100
AcDbEntity
  8
外形線
100
AcDbLine
 10
323.7999658977015
 20
125.0
 30
0.0
 11
317.1999658977051
 21
125.0
 31
0.0
  0
LINE
  5
6D0
330
1F
100
AcDbEntity
  8
Defpoints
100
AcDbLine
 10
324.5
 20
125.7000341022985
 30
0.0
 11
316.5
 21
125.7000341022985
 31
0.0
  0
LINE
  5
6D1
330
1F
100
AcDbEntity
  8
外形線
100
AcDbLine
 10
317.1999658977051
 20
125.0
 30
0.0
 11
316.5
 21
125.699965897705
 31
0.0
  0
LINE
  5
6D2
330
1F
100
AcDbEntity
  8
外形線
100
AcDbLine
 10
324.5
 20
125.7000341022985
 30
0.0
 11
323.7999658977015
 21
125.0
 31
0.0
  0
ELLIPSE
  5
6D8
330
1F
100
AcDbEntity
  8
外形線
100
AcDbEllipse
 10
398.1629364491234
 20
175.0
 30
0.0
 11
0.0
 21
4.5
 31
0.0
210
0.0
220
0.0
230
1.0
 40
0.698091206733832
 41
3.665191429188091
 42
5.759586531581287
  0
LINE
  5
6D9
330
1F
100
AcDbEntity
  8
外形線
100
AcDbLine
 10
441.25
 20
100.0
 30
0.0
 11
441.25
 21
150.0
 31
0.0
  0
LINE
  5
6DB
330
1F
100
AcDbEntity
  8
外形線
100
AcDbLine
 10
453.0
 20
200.0
 30
0.0
 11
453.0
 21
180.0
 31
0.0
  0
LWPOLYLINE
  5
6DC
330
1F
100
AcDbEntity
  8
外形線
100
AcDbPolyline
 90
        4
 70
     1
 43
0.0
 10
446.4882348870061
 20
180.0
 10
455.4882348870062
 20
180.0
 10
455.4882348870062
 20
150.0
 10
446.4882348870061
 20
150.0
  0
LWPOLYLINE
  5
7A3
330
1F
100
AcDbEntity
  8
外形線
100
AcDbPolyline
 90
        5
 70
     0
 43
0.0
 10
326.5
 20
150.0
 10
326.5
 20
140.0
 10
226.5
 20
140.0
 10
226.5
 20
160.0
 10
276.5
 20
160.0
  0
LWPOLYLINE
  5
7A4
330
1F
100
AcDbEntity
  8
外形線
100
AcDbPolyline
 90
        4
 70
     1
 43
0.0
 10
226.5
 20
140.0
 10
326.5
 20
140.0
 10
326.5
 20
136.8
 10
226.5
 20
136.8
  0
INSERT
  5
7BD
330
1F
100
AcDbEntity
  8
外形線
100
AcDbBlockReference
  2
sws08
 10
232.5000341022967
 20
136.8
 30
0.0
 50
90.0
  0
INSERT
  5
7BE
330
1F
100
AcDbEntity
  8
外形線
100
AcDbBlockReference
  2
sws08
 10
320.4999658977032
 20
136.8
 30
0.0
 50
90.0
  0
INSERT
  5
7E6
330
1F
100
AcDbEntity
  8
外形線
100
AcDbBlockReference
  2
n12s08
 10
232.5000375505726
 20
134.7999812124187
 30
0.0
 50
90.0
  0
INSERT
  5
7E7
330
1F
100
AcDbEntity
  8
外形線
100
AcDbBlockReference
  2
n12s08
 10
320.4999693459791
 20
134.7999812124187
 30
0.0
 50
90.0
  0
LINE
  5
7FD
330
1F
100
AcDbEntity
  8
外形線
100
AcDbLine
 10
219.0
 20
422.0
 30
0.0
 11
334.0
 21
422.0
 31
0.0
  0
LWPOLYLINE
  5
7FE
330
1F
100
AcDbEntity
  8
外形線
100
AcDbPolyline
 90
        4
 70
     0
 43
0.0
 10
276.5
 20
392.0
 10
196.5
 20
392.0
 10
196.5
 20
395.2
 10
276.5
 20
395.2
  0
LINE
  5
800
330
1F
100
AcDbEntity
  8
外形線
100
AcDbLine
 10
219.0
 20
395.2
 30
0.0
 11
219.0
 21
422.0
 31
0.0
  0
LINE
  5
802
330
1F
100
AcDbEntity
  8
外形線
100
AcDbLine
 10
219.0
 20
382.0
 30
0.0
 11
219.0
 21
392.0
 31
0.0
  0
LINE
  5
804
330
1F
100
AcDbEntity
  8
外形線
100
AcDbLine
 10
334.0
 20
422.0
 30
0.0
 11
334.0
 21
400.1999999999999
 31
0.0
  0
LINE
  5
808
330
1F
100
AcDbEntity
  8
外形線
100
AcDbLine
 10
276.5
 20
400.1999999999999
 30
0.0
 11
355.5
 21
400.1999999999999
 31
0.0
  0
LINE
  5
879
330
1F
100
AcDbEntity
  8
0
  6
Continuous
 62
     4
100
AcDbLine
 10
246.5
 20
96.80000000000003
 30
0.0
 11
246.5
 21
136.3
 31
0.0
  0
LINE
  5
87A
330
1F
100
AcDbEntity
  8
0
  6
Continuous
 62
     4
100
AcDbLine
 10
306.5
 20
96.79999999999999
 30
0.0
 11
306.5
 21
136.8
 31
0.0
  0
LINE
  5
87B
330
1F
100
AcDbEntity
  8
0
  6
CENTER
 62
     4
100
AcDbLine
 10
276.5
 20
40.71081900000002
 30
0.0
 11
276.5
 21
142.097099
 31
0.0
  0
LINE
  5
87C
330
1F
100
AcDbEntity
  8
0
  6
Continuous
 62
     4
100
AcDbLine
 10
246.2
 20
96.79999999999999
 30
0.0
 11
306.799999
 21
96.80000000000003
 31
0.0
  0
LINE
  5
87D
330
1F
100
AcDbEntity
  8
0
  6
Continuous
 62
     4
100
AcDbLine
 10
247.0
 20
23.30000000000001
 30
0.0
 11
306.0
 21
23.30000000000001
 31
0.0
  0
LINE
  5
87E
330
1F
100
AcDbEntity
  8
0
  6
Continuous
 62
     4
100
AcDbLine
 10
246.5
 20
28.80000000000001
 30
0.0
 11
306.5
 21
28.79999999999995
 31
0.0
  0
LINE
  5
87F
330
1F
100
AcDbEntity
  8
0
  6
Continuous
 62
     4
100
AcDbLine
 10
246.2000000000001
 20
90.30000000000001
 30
0.0
 11
306.799999
 21
90.30000000000001
 31
0.0
  0
LINE
  5
880
330
1F
100
AcDbEntity
  8
0
  6
Continuous
 62
     4
100
AcDbLine
 10
248.5
 20
21.80000000000001
 30
0.0
 11
304.5
 21
21.80000000000001
 31
0.0
  0
LINE
  5
881
330
1F
100
AcDbEntity
  8
0
  6
Continuous
 62
     4
100
AcDbLine
 10
306.5
 20
28.79999999999995
 30
0.0
 11
306.5
 21
90.30000000000001
 31
0.0
  0
LINE
  5
882
330
1F
100
AcDbEntity
  8
0
  6
Continuous
 62
     4
100
AcDbLine
 10
306.0
 20
23.30000000000001
 30
0.0
 11
306.0
 21
28.80000000000001
 31
0.0
  0
LINE
  5
883
330
1F
100
AcDbEntity
  8
0
  6
Continuous
 62
     4
100
AcDbLine
 10
306.0
 20
23.30000000000001
 30
0.0
 11
304.5
 21
21.80000000000001
 31
0.0
  0
LINE
  5
89A
330
1F
100
AcDbEntity
  8
0
  6
Continuous
 62
     4
100
AcDbLine
 10
306.799999
 20
90.30000000000001
 30
0.0
 11
306.799999
 21
96.80000000000001
 31
0.0
  0
LINE
  5
89B
330
1F
100
AcDbEntity
  8
0
  6
Continuous
 62
     4
100
AcDbLine
 10
305.248737
 20
89.59999999999997
 30
0.0
 11
297.248737
 21
89.59999999999997
 31
0.0
  0
LINE
  5
89C
330
1F
100
AcDbEntity
  8
0
  6
Continuous
 62
     4
100
AcDbLine
 10
305.248737
 20
89.59999999999997
 30
0.0
 11
305.248737
 21
90.30000000000001
 31
0.0
  0
LINE
  5
89D
330
1F
100
AcDbEntity
  8
0
  6
Continuous
 62
     4
100
AcDbLine
 10
297.248737
 20
89.59999999999997
 30
0.0
 11
297.248737
 21
90.30000000000001
 31
0.0
  0
LINE
  5
89E
330
1F
100
AcDbEntity
  8
0
  6
Continuous
 62
     4
100
AcDbLine
 10
246.5
 20
28.80000000000001
 30
0.0
 11
246.5
 21
90.30000000000001
 31
0.0
  0
LINE
  5
89F
330
1F
100
AcDbEntity
  8
0
  6
Continuous
 62
     4
100
AcDbLine
 10
248.5
 20
21.80000000000001
 30
0.0
 11
247.0
 21
23.30000000000001
 31
0.0
  0
LINE
  5
8A0
330
1F
100
AcDbEntity
  8
0
  6
Continuous
 62
     4
100
AcDbLine
 10
247.0
 20
23.30000000000001
 30
0.0
 11
247.0
 21
28.80000000000001
 31
0.0
  0
LINE
  5
8A1
330
1F
100
AcDbEntity
  8
0
  6
Continuous
 62
     4
100
AcDbLine
 10
247.751262
 20
89.59999999999997
 30
0.0
 11
255.751262
 21
89.59999999999997
 31
0.0
  0
LINE
  5
8A2
330
1F
100
AcDbEntity
  8
0
  6
Continuous
 62
     4
100
AcDbLine
 10
255.751262
 20
89.59999999999997
 30
0.0
 11
255.751262
 21
90.30000000000001
 31
0.0
  0
LINE
  5
8A3
330
1F
100
AcDbEntity
  8
0
  6
Continuous
 62
     4
100
AcDbLine
 10
247.751262
 20
89.59999999999997
 30
0.0
 11
247.751262
 21
90.30000000000001
 31
0.0
  0
LINE
  5
8A4
330
1F
100
AcDbEntity
  8
0
  6
Continuous
 62
     4
100
AcDbLine
 10
246.2000000000001
 20
90.30000000000001
 30
0.0
 11
246.2000000000001
 21
96.80000000000001
 31
0.0
  0
LINE
  5
8AA
330
1F
100
AcDbEntity
  8
0
  6
Continuous
 62
     4
100
AcDbLine
 10
247.0
 20
136.8
 30
0.0
 11
306.0
 21
136.8
 31
0.0
  0
ARC
  5
8BB
330
1F
100
AcDbEntity
  8
0
  6
Continuous
 62
     4
100
AcDbCircle
 10
247.0
 20
136.2999999999999
 30
0.0
 40
0.5
100
AcDbArc
 50
90.0
 51
180.0
  0
LINE
  5
8E4
330
1F
100
AcDbEntity
  8
補助線
100
AcDbLine
 10
247.0
 20
136.8
 30
0.0
 11
306.5
 21
136.8
 31
0.0
  0
LINE
  5
8E5
330
1F
100
AcDbEntity
  8
外形線
100
AcDbLine
 10
247.0
 20
136.8
 30
0.0
 11
306.5
 21
136.8
 31
0.0
  0
LINE
  5
8F4
330
1F
100
AcDbEntity
  8
外形線
100
AcDbLine
 10
215.5
 20
185.3
 30
0.0
 11
229.0
 21
185.3
 31
0.0
  0
LINE
  5
8F5
330
1F
100
AcDbEntity
  8
外形線
100
AcDbLine
 10
261.5
 20
183.0
 30
0.0
 11
254.0
 21
183.0
 31
0.0
  0
LINE
  5
8F6
330
1F
100
AcDbEntity
  8
外形線
100
AcDbLine
 10
276.5
 20
264.5099601593626
 30
0.0
 11
221.2730555555555
 21
185.3
 31
0.0
  0
LWPOLYLINE
  5
8F7
330
1F
100
AcDbEntity
  8
外形線
100
AcDbPolyline
 90
        4
 70
     0
 43
0.0
 10
276.5
 20
382.0
 10
215.5
 20
382.0
 10
215.5
 20
352.0
 10
276.5
 20
352.0
  0
LINE
  5
8F8
330
1F
100
AcDbEntity
  8
外形線
100
AcDbLine
 10
261.5
 20
185.3
 30
0.0
 11
261.5
 21
183.0
 31
0.0
  0
LINE
  5
8F9
330
1F
100
AcDbEntity
  8
外形線
100
AcDbLine
 10
117.7113888888889
 20
173.3
 30
0.0
 11
215.5
 21
352.0
 31
0.0
  0
LINE
  5
8FB
330
1F
100
AcDbEntity
  8
外形線
100
AcDbLine
 10
219.6694444444444
 20
183.0
 30
0.0
 11
212.9063888888889
 21
173.3
 31
0.0
  0
LINE
  5
90B
330
1F
100
AcDbEntity
  8
センター線
100
AcDbLine
 10
276.5
 20
440.1018237298835
 30
0.0
 11
276.5
 21
9.76797245988223
 31
0.0
  0
LINE
  5
92A
330
1F
100
AcDbEntity
  8
外形線
100
AcDbLine
 10
217.6711576931683
 20
173.3
 30
0.0
 11
115.6711576931683
 21
173.3
 31
0.0
  0
LWPOLYLINE
  5
92B
330
1F
100
AcDbEntity
  8
外形線
100
AcDbPolyline
 90
        4
 70
     0
 43
0.0
 10
276.5
 20
163.3
 10
110.5
 20
163.3
 10
110.5
 20
162.3
 10
276.5
 20
162.3
  0
LINE
  5
92C
330
1F
100
AcDbEntity
  8
センター線
100
AcDbLine
 10
276.5
 20
202.5325725995107
 30
0.0
 11
276.5
 21
110.441171747177
 31
0.0
  0
LINE
  5
92D
330
1F
100
AcDbEntity
  8
外形線
100
AcDbLine
 10
229.0
 20
189.3
 30
0.0
 11
229.0
 21
164.3
 31
0.0
  0
LINE
  5
92E
330
1F
100
AcDbEntity
  8
外形線
100
AcDbLine
 10
254.0
 20
164.3
 30
0.0
 11
254.0
 21
189.3
 31
0.0
  0
LINE
  5
92F
330
1F
100
AcDbEntity
  8
外形線
100
AcDbLine
 10
276.5
 20
164.9
 30
0.0
 11
256.5
 21
164.9
 31
0.0
  0
LINE
  5
931
330
1F
100
AcDbEntity
  8
外形線
100
AcDbLine
 10
296.5
 20
164.9
 30
0.0
 11
296.5
 21
164.9
 31
0.0
  0
LINE
  5
936
330
1F
100
AcDbEntity
  8
外形線
100
AcDbLine
 10
256.5
 20
164.9
 30
0.0
 11
256.5
 21
163.3
 31
0.0
  0
LINE
  5
937
330
1F
100
AcDbEntity
  8
外形線
100
AcDbLine
 10
254.0
 20
164.3
 30
0.0
 11
229.0
 21
164.3
 31
0.0
  0
LINE
  5
938
330
1F
100
AcDbEntity
  8
外形線
100
AcDbLine
 10
254.0
 20
163.3
 30
0.0
 11
254.0
 21
164.3
 31
0.0
  0
LINE
  5
939
330
1F
100
AcDbEntity
  8
外形線
100
AcDbLine
 10
229.0
 20
164.3
 30
0.0
 11
229.0
 21
163.3
 31
0.0
  0
LINE
  5
93B
330
1F
100
AcDbEntity
  8
外形線
100
AcDbLine
 10
217.6711576931683
 20
163.3
 30
0.0
 11
217.6711576931683
 21
173.3
 31
0.0
  0
LINE
  5
93C
330
1F
100
AcDbEntity
  8
外形線
100
AcDbLine
 10
239.0
 20
189.3
 30
0.0
 11
229.0
 21
189.3
 31
0.0
  0
LINE
  5
93F
330
1F
100
AcDbEntity
  8
外形線
100
AcDbLine
 10
254.0
 20
189.3
 30
0.0
 11
244.0
 21
189.3
 31
0.0
  0
LINE
  5
941
330
1F
100
AcDbEntity
  8
外形線
100
AcDbLine
 10
131.0489773153863
 20
163.3
 30
0.0
 11
131.0489773153863
 21
162.3
 31
0.0
  0
LINE
  5
943
330
1F
100
AcDbEntity
  8
外形線
100
AcDbLine
 10
115.6711576931683
 20
173.3
 30
0.0
 11
115.6711576931683
 21
163.3
 31
0.0
  0
LINE
  5
95E
330
1F
100
AcDbEntity
  8
外形線
100
AcDbLine
 10
239.0
 20
189.3
 30
0.0
 11
244.0
 21
189.3
 31
0.0
  0
LINE
  5
961
330
1F
100
AcDbEntity
  8
外形線
100
AcDbLine
 10
254.0
 20
185.3
 30
0.0
 11
261.5
 21
185.3
 31
0.0
  0
LINE
  5
962
330
1F
100
AcDbEntity
  8
外形線
100
AcDbLine
 10
229.0
 20
183.0
 30
0.0
 11
215.5
 21
183.0
 31
0.0
  0
LINE
  5
963
330
1F
100
AcDbEntity
  8
外形線
100
AcDbLine
 10
264.0
 20
164.9
 30
0.0
 11
264.0
 21
178.3
 31
0.0
  0
LINE
  5
964
330
1F
100
AcDbEntity
  8
外形線
100
AcDbLine
 10
264.0
 20
178.3
 30
0.0
 11
276.5
 21
178.3
 31
0.0
  0
CIRCLE
  5
99E
330
1F
100
AcDbEntity
  8
外形線
100
AcDbCircle
 10
386.5
 20
770.6352913291486
 30
0.0
 40
53.6
  0
ARC
  5
99F
330
1F
100
AcDbEntity
  8
センター線
100
AcDbCircle
 10
276.5
 20
770.6352913291486
 30
0.0
 40
110.0
100
AcDbArc
 50
0.0
 51
90.0
  0
CIRCLE
  5
9A0
330
1F
100
AcDbEntity
  8
外形線
100
AcDbCircle
 10
276.5
 20
770.6352913291486
 30
0.0
 40
176.5
  0
CIRCLE
  5
9A1
330
1F
100
AcDbEntity
  8
外形線
100
AcDbCircle
 10
276.5
 20
770.6352913291486
 30
0.0
 40
172.0
  0
CIRCLE
  5
9A2
330
1F
100
AcDbEntity
  8
外形線
100
AcDbCircle
 10
276.5
 20
660.6352913291487
 30
0.0
 40
53.6
  0
LINE
  5
9A3
330
1F
100
AcDbEntity
  8
センター線
100
AcDbLine
 10
159.0
 20
770.6352913291486
 30
0.0
 11
174.0
 21
770.6352913291486
 31
0.0
  0
CIRCLE
  5
9A4
330
1F
100
AcDbEntity
  8
外形線
100
AcDbCircle
 10
166.5
 20
770.6352913291486
 30
0.0
 40
53.6
  0
LINE
  5
9A7
330
1F
100
AcDbEntity
  8
センター線
100
AcDbLine
 10
166.5
 20
763.1352913291486
 30
0.0
 11
166.5
 21
778.1352913291486
 31
0.0
  0
CIRCLE
  5
9AA
330
1F
100
AcDbEntity
  8
外形線
100
AcDbCircle
 10
276.5
 20
880.6352913291487
 30
0.0
 40
53.6
  0
LINE
  5
9AC
330
1F
100
AcDbEntity
  8
センター線
100
AcDbLine
 10
276.5
 20
653.1352913291486
 30
0.0
 11
276.5
 21
668.1352913291487
 31
0.0
  0
LINE
  5
9AD
330
1F
100
AcDbEntity
  8
センター線
100
AcDbLine
 10
269.0
 20
660.6352913291487
 30
0.0
 11
284.0
 21
660.6352913291487
 31
0.0
  0
INSERT
  5
9AE
330
1F
100
AcDbEntity
  8
隠線
100
AcDbBlockReference
  2
tapf08n
 10
232.5
 20
726.6352913291487
 30
0.0
  0
INSERT
  5
9B1
330
1F
100
AcDbEntity
  8
隠線
100
AcDbBlockReference
  2
tapf08n
 10
232.5
 20
814.6352913291487
 30
0.0
  0
INSERT
  5
9B2
330
1F
100
AcDbEntity
  8
隠線
100
AcDbBlockReference
  2
tapf08n
 10
320.5
 20
726.6352913291487
 30
0.0
 41
-1.0
  0
INSERT
  5
9B4
330
1F
100
AcDbEntity
  8
隠線
100
AcDbBlockReference
  2
tapf08n
 10
320.5
 20
814.6352913291487
 30
0.0
 41
-1.0
  0
LINE
  5
9B5
330
1F
100
AcDbEntity
  8
センター線
100
AcDbLine
 10
386.5
 20
763.1352913291486
 30
0.0
 11
386.5
 21
770.6352913291486
 31
0.0
  0
LINE
  5
9B6
330
1F
100
AcDbEntity
  8
センター線
100
AcDbLine
 10
379.0
 20
770.6352913291486
 30
0.0
 11
394.0
 21
770.6352913291486
 31
0.0
  0
LINE
  5
9B7
330
1F
100
AcDbEntity
  8
センター線
100
AcDbLine
 10
276.5
 20
873.1352913291486
 30
0.0
 11
276.5
 21
888.1352913291486
 31
0.0
  0
LINE
  5
9B8
330
1F
100
AcDbEntity
  8
センター線
100
AcDbLine
 10
269.0
 20
880.6352913291487
 30
0.0
 11
276.5
 21
880.6352913291487
 31
0.0
  0
LINE
  5
9BA
330
1F
100
AcDbEntity
  8
外形線
100
AcDbLine
 10
454.4882348870062
 20
817.1352913291487
 30
0.0
 11
454.4882348870062
 21
724.1352913291486
 31
0.0
  0
LINE
  5
9BB
330
1F
100
AcDbEntity
  8
外形線
100
AcDbLine
 10
455.4882348870062
 20
818.1352913291487
 30
0.0
 11
455.4882348870062
 21
723.1352913291487
 31
0.0
  0
LINE
  5
9BC
330
1F
100
AcDbEntity
  8
外形線
100
AcDbLine
 10
454.4882348870062
 20
724.1352913291486
 30
0.0
 11
446.4882348870061
 21
724.1352913291486
 31
0.0
  0
LINE
  5
9BD
330
1F
100
AcDbEntity
  8
外形線
100
AcDbLine
 10
455.4882348870062
 20
723.1352913291487
 30
0.0
 11
446.4882348870061
 21
723.1352913291487
 31
0.0
  0
LINE
  5
9BE
330
1F
100
AcDbEntity
  8
外形線
100
AcDbLine
 10
446.7645001167301
 20
817.1352913291487
 30
0.0
 11
454.4882348870062
 21
817.1352913291487
 31
0.0
  0
LINE
  5
9BF
330
1F
100
AcDbEntity
  8
外形線
100
AcDbLine
 10
446.4882348870061
 20
818.1352913291487
 30
0.0
 11
455.4882348870062
 21
818.1352913291487
 31
0.0
  0
INSERT
  5
9EF
330
1F
100
AcDbEntity
  8
外形線
100
AcDbBlockReference
  2
tapf04
 10
310.5000341022968
 20
746.6352947774245
 30
0.0
  0
LWPOLYLINE
  5
9F2
330
1F
100
AcDbEntity
  8
外形線
100
AcDbPolyline
 90
        4
 70
     1
 43
0.0
 10
226.5000341022968
 20
820.6352947774245
 10
326.5000341022968
 20
820.6352947774245
 10
326.5000341022968
 20
720.6352947774246
 10
226.5000341022968
 20
720.6352947774246
  0
LWPOLYLINE
  5
9F3
330
1F
100
AcDbEntity
  8
外形線
100
AcDbPolyline
 90
        4
 70
     1
 43
0.0
 10
228.1000341022968
 20
819.0352947774245
 10
324.9000341022967
 20
819.0352947774245
 10
324.9000341022967
 20
722.2352947774246
 10
228.1000341022968
 20
722.2352947774246
  0
CIRCLE
  5
9F4
330
1F
100
AcDbEntity
  8
外形線
100
AcDbCircle
 10
232.5000341022967
 20
726.6352947774245
 30
0.0
 40
4.25
  0
LINE
  5
9F5
330
1F
100
AcDbEntity
  8
外形線
100
AcDbLine
 10
228.1000341022968
 20
722.2352947774246
 30
0.0
 11
228.1000341022968
 21
720.6352947774245
 31
0.0
  0
LINE
  5
9F6
330
1F
100
AcDbEntity
  8
外形線
100
AcDbLine
 10
266.5000341022968
 20
720.6352947774246
 30
0.0
 11
251.5000341022968
 21
720.6352947774246
 31
0.0
  0
CIRCLE
  5
9FA
330
1F
100
AcDbEntity
  8
外形線
100
AcDbCircle
 10
320.5000341022968
 20
726.6352947774245
 30
0.0
 40
4.25
  0
LINE
  5
9FB
330
1F
100
AcDbEntity
  8
外形線
100
AcDbLine
 10
324.9000341022967
 20
722.2352947774245
 30
0.0
 11
326.5000341022968
 21
722.2352947774245
 31
0.0
  0
CIRCLE
  5
9FC
330
1F
100
AcDbEntity
  8
外形線
100
AcDbCircle
 10
232.5000341022967
 20
814.6352947774245
 30
0.0
 40
4.25
  0
LINE
  5
9FD
330
1F
100
AcDbEntity
  8
外形線
100
AcDbLine
 10
226.5000341022968
 20
819.0352947774245
 30
0.0
 11
228.1000341022968
 21
819.0352947774245
 31
0.0
  0
INSERT
  5
A03
330
1F
100
AcDbEntity
  8
外形線
100
AcDbBlockReference
  2
tapf04
 10
310.5000341022968
 20
794.6352947774244
 30
0.0
  0
CIRCLE
  5
A09
330
1F
100
AcDbEntity
  8
外形線
100
AcDbCircle
 10
320.5000341022968
 20
814.6352947774245
 30
0.0
 40
4.25
  0
LINE
  5
A0A
330
1F
100
AcDbEntity
  8
外形線
100
AcDbLine
 10
324.9000341022967
 20
820.6352947774245
 30
0.0
 11
324.9000341022967
 21
819.0352947774245
 31
0.0
  0
CIRCLE
  5
A3E
330
1F
100
AcDbEntity
  8
0
  6
Continuous
 62
     4
100
AcDbCircle
 10
266.5000341022968
 20
770.6352947774245
 30
0.0
 40
27.0
  0
LINE
  5
A40
330
1F
100
AcDbEntity
  8
0
  6
Continuous
 62
     4
100
AcDbLine
 10
296.8000341022969
 20
795.6352947774245
 30
0.0
 11
296.8000341022969
 21
745.6352947774245
 31
0.0
  0
LINE
  5
A41
330
1F
100
AcDbEntity
  8
0
  6
Continuous
 62
     4
100
AcDbLine
 10
236.2000351022969
 20
795.6352947774245
 30
0.0
 11
236.2000351022969
 21
745.6352947774245
 31
0.0
  0
LINE
  5
A43
330
1F
100
AcDbEntity
  8
0
  6
Continuous
 62
     4
100
AcDbLine
 10
291.5000341022969
 20
800.9352947774246
 30
0.0
 11
241.5000351022968
 21
800.9352947774246
 31
0.0
  0
ARC
  5
A44
330
1F
100
AcDbEntity
  8
0
  6
Continuous
 62
     4
100
AcDbCircle
 10
241.5000351022968
 20
795.6352947774245
 30
0.0
 40
5.299999999999999
100
AcDbArc
 50
89.99999999999998
 51
180.0
  0
CIRCLE
  5
A45
330
1F
100
AcDbEntity
  8
0
  6
Continuous
 62
     4
100
AcDbCircle
 10
241.7512971022969
 20
795.3840317774245
 30
0.0
 40
2.25
  0
ARC
  5
A47
330
1F
100
AcDbEntity
  8
0
  6
Continuous
 62
     4
100
AcDbCircle
 10
291.5000341022968
 20
795.6352947774245
 30
0.0
 40
5.299999999999999
100
AcDbArc
 50
0.0
 51
89.99999999999998
  0
CIRCLE
  5
A4A
330
1F
100
AcDbEntity
  8
0
  6
Continuous
 62
     4
100
AcDbCircle
 10
291.2487721022968
 20
795.3840317774245
 30
0.0
 40
2.25
  0
LINE
  5
A4B
330
1F
100
AcDbEntity
  8
0
  6
Continuous
 62
     4
100
AcDbLine
 10
241.5000351022968
 20
740.3352947774245
 30
0.0
 11
271.5592611022968
 21
740.3352947774245
 31
0.0
  0
ARC
  5
A4E
330
1F
100
AcDbEntity
  8
0
  6
Continuous
 62
     4
100
AcDbCircle
 10
241.5000351022968
 20
745.6352947774245
 30
0.0
 40
5.299999999999999
100
AcDbArc
 50
180.0
 51
270.0
  0
CIRCLE
  5
A4F
330
1F
100
AcDbEntity
  8
0
  6
Continuous
 62
     4
100
AcDbCircle
 10
241.7512971022969
 20
745.8865577774245
 30
0.0
 40
2.25
  0
ARC
  5
A65
330
1F
100
AcDbEntity
  8
0
  6
Continuous
 62
     4
100
AcDbCircle
 10
291.5000341022968
 20
745.6352947774245
 30
0.0
 40
5.299999999999999
100
AcDbArc
 50
270.0
 51
0.0
  0
CIRCLE
  5
A66
330
1F
100
AcDbEntity
  8
0
  6
Continuous
 62
     4
100
AcDbCircle
 10
291.2487721022968
 20
745.8865577774245
 30
0.0
 40
2.25
  0
LINE
  5
A6C
330
1F
100
AcDbEntity
  8
0
  6
Continuous
 62
     4
100
AcDbLine
 10
271.5592611022968
 20
740.3352947774245
 30
0.0
 11
291.5000341022969
 21
740.3352947774245
 31
0.0
  0
LINE
  5
A82
330
1F
100
AcDbEntity
  8
外形線
100
AcDbLine
 10
422.7208890766842
 20
911.1993261565519
 30
0.0
 11
410.1431816441516
 21
898.6216187240193
 31
0.0
  0
LINE
  5
A83
330
1F
100
AcDbEntity
  8
外形細線
100
AcDbLine
 10
423.0832357398436
 20
912.5516223134164
 30
0.0
 11
409.6482068972991
 21
899.1165934708718
 31
0.0
  0
LINE
  5
A84
330
1F
100
AcDbEntity
  8
外形細線
100
AcDbLine
 10
404.9813021417172
 20
903.7834982264538
 30
0.0
 11
418.4163309842617
 21
917.2185270689983
 31
0.0
  0
LINE
  5
A85
330
1F
100
AcDbEntity
  8
外形線
100
AcDbLine
 10
404.4863273948648
 20
904.2784729733062
 30
0.0
 11
417.0640348273974
 21
916.8561804058388
 31
0.0
  0
LINE
  5
A8A
330
1F
100
AcDbEntity
  8
外形細線
100
AcDbLine
 10
417.0640348273974
 20
916.8561804058388
 30
0.0
 11
422.7208890766842
 21
911.1993261565519
 31
0.0
  0
LINE
  5
A8B
330
1F
100
AcDbEntity
  8
外形線
100
AcDbLine
 10
418.4163309842617
 20
917.2185270689983
 30
0.0
 11
423.0832357398436
 21
912.5516223134164
 31
0.0
  0
LINE
  5
A8C
330
1F
100
AcDbEntity
  8
外形線
100
AcDbLine
 10
423.0832357398436
 20
912.5516223134164
 30
0.0
 11
422.7208890766842
 21
911.1993261565519
 31
0.0
  0
LINE
  5
A97
330
1F
100
AcDbEntity
  8
外形線
100
AcDbLine
 10
417.0640348273974
 20
916.8561804058388
 30
0.0
 11
418.4163309842617
 21
917.2185270689983
 31
0.0
  0
INSERT
  5
A9A
330
1F
100
AcDbEntity
  8
外形線
100
AcDbBlockReference
  2
sws08
 10
402.7185604417986
 20
896.8538517709474
 30
0.0
 50
45.0
  0
INSERT
  5
AA9
330
1F
100
AcDbEntity
  8
外形線
100
AcDbBlockReference
  2
n13s08
 10
402.7185712883256
 20
896.8538674940727
 30
0.0
 50
225.0
  0
LINE
  5
AB1
330
1F
100
AcDbEntity
  8
外形細線
100
AcDbLine
 10
404.9813021417172
 20
637.4870844318435
 30
0.0
 11
418.4163309842617
 21
624.0520555892991
 31
0.0
  0
LINE
  5
AB2
330
1F
100
AcDbEntity
  8
外形細線
100
AcDbLine
 10
423.0832357398436
 20
628.7189603448809
 30
0.0
 11
409.6482068972991
 21
642.1539891874255
 31
0.0
  0
LINE
  5
AB3
330
1F
100
AcDbEntity
  8
外形線
100
AcDbLine
 10
422.7208890766842
 20
630.0712565017454
 30
0.0
 11
410.1431816441516
 21
642.6489639342779
 31
0.0
  0
LINE
  5
AB4
330
1F
100
AcDbEntity
  8
外形線
100
AcDbLine
 10
404.4863273948648
 20
636.992109684991
 30
0.0
 11
417.0640348273974
 21
624.4144022524586
 31
0.0
  0
INSERT
  5
AB6
330
1F
100
AcDbEntity
  8
外形線
100
AcDbBlockReference
  2
n13s08
 10
402.7185712883256
 20
644.4167151642247
 30
0.0
 41
-1.0
 50
315.0
  0
INSERT
  5
AB7
330
1F
100
AcDbEntity
  8
外形線
100
AcDbBlockReference
  2
sws08
 10
402.7185604417986
 20
644.41673088735
 30
0.0
 41
-1.0
 50
134.9999999999999
  0
LINE
  5
AB9
330
1F
100
AcDbEntity
  8
外形線
100
AcDbLine
 10
418.4163309842617
 20
624.0520555892991
 30
0.0
 11
423.0832357398436
 21
628.7189603448809
 31
0.0
  0
LINE
  5
ABA
330
1F
100
AcDbEntity
  8
外形細線
100
AcDbLine
 10
417.0640348273974
 20
624.4144022524586
 30
0.0
 11
422.7208890766842
 21
630.0712565017454
 31
0.0
  0
LINE
  5
ABB
330
1F
100
AcDbEntity
  8
外形線
100
AcDbLine
 10
417.0640348273974
 20
624.4144022524586
 30
0.0
 11
418.4163309842617
 21
624.0520555892991
 31
0.0
  0
LINE
  5
ABC
330
1F
100
AcDbEntity
  8
外形線
100
AcDbLine
 10
423.0832357398436
 20
628.7189603448809
 30
0.0
 11
422.7208890766842
 21
630.0712565017454
 31
0.0
  0
LINE
  5
ABD
330
1F
100
AcDbEntity
  8
外形細線
100
AcDbLine
 10
148.0186978582827
 20
903.7834982264538
 30
0.0
 11
134.5836690157383
 21
917.2185270689983
 31
0.0
  0
LINE
  5
ABE
330
1F
100
AcDbEntity
  8
外形細線
100
AcDbLine
 10
129.9167642601563
 20
912.5516223134164
 30
0.0
 11
143.3517931027008
 21
899.1165934708718
 31
0.0
  0
LINE
  5
ABF
330
1F
100
AcDbEntity
  8
外形線
100
AcDbLine
 10
130.2791109233157
 20
911.1993261565519
 30
0.0
 11
142.8568183558483
 21
898.6216187240193
 31
0.0
  0
LINE
  5
AC0
330
1F
100
AcDbEntity
  8
外形線
100
AcDbLine
 10
148.5136726051351
 20
904.2784729733062
 30
0.0
 11
135.9359651726025
 21
916.8561804058388
 31
0.0
  0
INSERT
  5
AC2
330
1F
100
AcDbEntity
  8
外形線
100
AcDbBlockReference
  2
n13s08
 10
150.2814287116744
 20
896.8538674940727
 30
0.0
 41
-1.0
 50
134.9999999999999
  0
INSERT
  5
AC3
330
1F
100
AcDbEntity
  8
外形線
100
AcDbBlockReference
  2
sws08
 10
150.2814395582014
 20
896.8538517709474
 30
0.0
 41
-1.0
 50
315.0
  0
LINE
  5
AC5
330
1F
100
AcDbEntity
  8
外形線
100
AcDbLine
 10
134.5836690157383
 20
917.2185270689983
 30
0.0
 11
129.9167642601563
 21
912.5516223134164
 31
0.0
  0
LINE
  5
AC6
330
1F
100
AcDbEntity
  8
外形細線
100
AcDbLine
 10
135.9359651726025
 20
916.8561804058388
 30
0.0
 11
130.2791109233157
 21
911.1993261565519
 31
0.0
  0
LINE
  5
AC7
330
1F
100
AcDbEntity
  8
外形線
100
AcDbLine
 10
135.9359651726025
 20
916.8561804058388
 30
0.0
 11
134.5836690157383
 21
917.2185270689983
 31
0.0
  0
LINE
  5
AC8
330
1F
100
AcDbEntity
  8
外形線
100
AcDbLine
 10
129.9167642601563
 20
912.5516223134164
 30
0.0
 11
130.2791109233157
 21
911.1993261565519
 31
0.0
  0
LINE
  5
AC9
330
1F
100
AcDbEntity
  8
外形線
100
AcDbLine
 10
148.5136726051351
 20
636.992109684991
 30
0.0
 11
135.9359651726025
 21
624.4144022524586
 31
0.0
  0
LINE
  5
ACA
330
1F
100
AcDbEntity
  8
外形線
100
AcDbLine
 10
130.2791109233157
 20
630.0712565017454
 30
0.0
 11
142.8568183558483
 21
642.6489639342779
 31
0.0
  0
LINE
  5
ACB
330
1F
100
AcDbEntity
  8
外形細線
100
AcDbLine
 10
129.9167642601563
 20
628.7189603448809
 30
0.0
 11
143.3517931027008
 21
642.1539891874255
 31
0.0
  0
LINE
  5
ACC
330
1F
100
AcDbEntity
  8
外形細線
100
AcDbLine
 10
148.0186978582827
 20
637.4870844318435
 30
0.0
 11
134.5836690157383
 21
624.0520555892991
 31
0.0
  0
INSERT
  5
ACD
330
1F
100
AcDbEntity
  8
外形線
100
AcDbBlockReference
  2
sws08
 10
150.2814395582014
 20
644.41673088735
 30
0.0
 50
225.0000000000001
  0
INSERT
  5
ACE
330
1F
100
AcDbEntity
  8
外形線
100
AcDbBlockReference
  2
n13s08
 10
150.2814287116744
 20
644.4167151642247
 30
0.0
 50
45.00000000000008
  0
LINE
  5
AD3
330
1F
100
AcDbEntity
  8
外形細線
100
AcDbLine
 10
135.9359651726025
 20
624.4144022524586
 30
0.0
 11
130.2791109233157
 21
630.0712565017454
 31
0.0
  0
LINE
  5
AD4
330
1F
100
AcDbEntity
  8
外形線
100
AcDbLine
 10
134.5836690157383
 20
624.0520555892991
 30
0.0
 11
129.9167642601563
 21
628.7189603448809
 31
0.0
  0
LINE
  5
AD5
330
1F
100
AcDbEntity
  8
外形線
100
AcDbLine
 10
135.9359651726025
 20
624.4144022524586
 30
0.0
 11
134.5836690157383
 21
624.0520555892991
 31
0.0
  0
LINE
  5
AD6
330
1F
100
AcDbEntity
  8
外形線
100
AcDbLine
 10
129.9167642601563
 20
628.7189603448809
 30
0.0
 11
130.2791109233157
 21
630.0712565017454
 31
0.0
  0
LWPOLYLINE
  5
AED
330
1F
100
AcDbEntity
  8
外形線
100
AcDbPolyline
 90
        4
 70
     1
 43
0.0
 10
304.2500341022968
 20
787.3852947774245
 10
316.7500341022968
 20
787.3852947774245
 10
316.7500341022968
 20
753.8852947774245
 10
304.2500341022968
 20
753.8852947774245
  0
ARC
  5
AF0
330
1F
100
AcDbEntity
  8
外形線
100
AcDbCircle
 10
310.5000341022968
 20
794.6352947774244
 30
0.0
 40
4.0
100
AcDbArc
 50
0.0
 51
180.0
  0
ARC
  5
AF1
330
1F
100
AcDbEntity
  8
外形線
100
AcDbCircle
 10
310.5000341022968
 20
746.6352947774245
 30
0.0
 40
4.0
100
AcDbArc
 50
180.0
 51
0.0
  0
LINE
  5
AF3
330
1F
100
AcDbEntity
  8
外形線
100
AcDbLine
 10
306.5000341022968
 20
794.6352947774244
 30
0.0
 11
306.5000341022968
 21
787.3852947774245
 31
0.0
  0
LINE
  5
AF4
330
1F
100
AcDbEntity
  8
外形線
100
AcDbLine
 10
314.5000341022968
 20
794.6352947774244
 30
0.0
 11
314.5000341022968
 21
787.3852947774245
 31
0.0
  0
LINE
  5
AF5
330
1F
100
AcDbEntity
  8
外形線
100
AcDbLine
 10
306.5000341022968
 20
753.8852947774245
 30
0.0
 11
306.5000341022968
 21
746.6352947774245
 31
0.0
  0
LINE
  5
AF6
330
1F
100
AcDbEntity
  8
外形線
100
AcDbLine
 10
314.5000341022968
 20
753.8852947774245
 30
0.0
 11
314.5000341022968
 21
746.6352947774245
 31
0.0
  0
CIRCLE
  5
BCD
330
1F
100
AcDbEntity
  8
外形線
100
AcDbCircle
 10
475.4882348870062
 20
733.1352913291486
 30
0.0
 40
9.5
  0
LINE
  5
BCE
330
1F
100
AcDbEntity
  8
隠線
100
AcDbLine
 10
498.1882348870063
 20
708.1352913291486
 30
0.0
 11
498.1882348870063
 21
833.1352913291485
 31
0.0
  0
LINE
  5
BCF
330
1F
100
AcDbEntity
  8
隠線
100
AcDbLine
 10
457.7882348870061
 20
833.1352913291487
 30
0.0
 11
457.7882348870061
 21
708.1352913291486
 31
0.0
  0
LINE
  5
BD0
330
1F
100
AcDbEntity
  8
外形線
100
AcDbLine
 10
455.4882348870062
 20
833.1352913291487
 30
0.0
 11
455.4882348870062
 21
708.1352913291486
 31
0.0
  0
LWPOLYLINE
  5
BD1
330
1F
100
AcDbEntity
  8
外形線
100
AcDbPolyline
 90
        4
 70
     0
 43
0.0
 10
455.4882348870062
 20
833.1352913291487
 10
500.4882348870062
 20
833.1352913291485
 10
500.4882348870062
 20
708.1352913291486
 10
455.4882348870062
 20
708.1352913291486
  0
LINE
  5
BD2
330
1F
100
AcDbEntity
  8
外形線
100
AcDbLine
 10
500.4882348870062
 20
708.1352913291488
 30
0.0
 11
500.4882348870062
 21
833.1352913291485
 31
0.0
  0
LINE
  5
BD3
330
1F
100
AcDbEntity
  8
外形線
100
AcDbLine
 10
501.4882348870062
 20
834.1352913291485
 30
0.0
 11
501.4882348870062
 21
707.1352913291486
 31
0.0
  0
LINE
  5
BD4
330
1F
100
AcDbEntity
  8
外形線
100
AcDbLine
 10
500.4882348870062
 20
833.1352913291485
 30
0.0
 11
453.4882348870062
 21
833.1352913291487
 31
0.0
  0
LINE
  5
BD5
330
1F
100
AcDbEntity
  8
外形線
100
AcDbLine
 10
453.4882348870062
 20
834.1352913291487
 30
0.0
 11
501.4882348870062
 21
834.1352913291485
 31
0.0
  0
LINE
  5
BD6
330
1F
100
AcDbEntity
  8
外形線
100
AcDbLine
 10
453.4882348870062
 20
833.1352913291487
 30
0.0
 11
453.4882348870062
 21
834.1352913291487
 31
0.0
  0
LINE
  5
BD7
330
1F
100
AcDbEntity
  8
外形線
100
AcDbLine
 10
453.4882348870062
 20
708.1352913291488
 30
0.0
 11
500.4882348870062
 21
708.1352913291488
 31
0.0
  0
LINE
  5
BD8
330
1F
100
AcDbEntity
  8
外形線
100
AcDbLine
 10
501.4882348870062
 20
707.1352913291486
 30
0.0
 11
453.4882348870062
 21
707.1352913291486
 31
0.0
  0
LINE
  5
BD9
330
1F
100
AcDbEntity
  8
外形線
100
AcDbLine
 10
453.4882348870062
 20
707.1352913291486
 30
0.0
 11
453.4882348870062
 21
708.1352913291488
 31
0.0
  0
INSERT
  5
BDA
330
1F
100
AcDbEntity
  8
外形線
100
AcDbBlockReference
  2
crsm0400
 10
501.4882348870063
 20
813.1352947771338
 30
0.0
 50
180.0
  0
INSERT
  5
BDB
330
1F
100
AcDbEntity
  8
外形線
100
AcDbBlockReference
  2
crsm0400
 10
501.4882348870063
 20
728.1352878805819
 30
0.0
 50
180.0
  0
LINE
  5
BE4
330
1F
100
AcDbEntity
  8
センター線
100
AcDbLine
 10
457.7882348870061
 20
811.6352913291487
 30
0.0
 11
455.4882348870062
 21
811.6352913291487
 31
0.0
  0
LINE
  5
BE5
330
1F
100
AcDbEntity
  8
センター線
100
AcDbLine
 10
457.7882348870061
 20
729.6352913291486
 30
0.0
 11
455.4882348870062
 21
729.6352913291486
 31
0.0
  0
LINE
  5
C1E
330
1F
100
AcDbEntity
  8
外形線
100
AcDbLine
 10
457.4882348870063
 20
225.0
 30
0.0
 11
457.4882348870064
 21
137.0
 31
0.0
  0
LINE
  5
C1F
330
1F
100
AcDbEntity
  8
外形線
100
AcDbLine
 10
502.4882348870064
 20
136.9999999999999
 30
0.0
 11
502.4882348870062
 21
149.9999999999999
 31
0.0
  0
LINE
  5
C20
330
1F
100
AcDbEntity
  8
外形線
100
AcDbLine
 10
502.4882348870066
 20
224.9999999999999
 30
0.0
 11
502.4882348870063
 21
211.9999999999999
 31
0.0
  0
LWPOLYLINE
  5
C21
330
1F
100
AcDbEntity
  8
外形線
100
AcDbPolyline
 90
        4
 70
     1
 43
0.0
 10
503.4882348870061
 20
135.9999999999999
 10
503.4882348870063
 20
225.9999999999999
 10
455.4882348870063
 20
226.0
 10
455.488234887006
 20
136.0
  0
INSERT
  5
C22
330
1F
100
AcDbEntity
  8
外形線
100
AcDbBlockReference
  2
crsm0400
 10
503.4882348870061
 20
143.0000007267946
 30
0.0
 41
-1.0
  0
INSERT
  5
C23
330
1F
100
AcDbEntity
  8
外形線
100
AcDbBlockReference
  2
crsm0400
 10
503.4882348870063
 20
218.999999273787
 30
0.0
 41
-1.0
  0
LWPOLYLINE
  5
C24
330
1F
100
AcDbEntity
  8
隠線
100
AcDbPolyline
 90
        4
 70
     1
 43
0.0
 10
502.4882348870061
 20
136.9999999999999
 10
502.4882348870063
 20
224.9999999999999
 10
457.4882348870063
 20
225.0
 10
457.4882348870062
 20
137.0
  0
LINE
  5
C25
330
1F
100
AcDbEntity
  8
センター線
100
AcDbLine
 10
457.4882348870064
 20
165.0
 30
0.0
 11
455.4882348870062
 21
165.0
 31
0.0
  0
DIMENSION
  5
C75
330
1F
100
AcDbEntity
  8
寸法線
100
AcDbDimension
  2
*D38
 10
501.4882348870062
 20
562.8436982068697
 30
0.0
 11
302.9941174435031
 21
572.2186982068697
 31
0.0
 70
    32
 71
     5
 42
396.9882348870062
  3
My DIM1
100
AcDbAlignedDimension
 13
104.5
 23
770.6352913291486
 33
0.0
 14
501.4882348870062
 24
770.6352913291486
 34
0.0
100
AcDbRotatedDimension
  0
DIMENSION
  5
C8F
330
1F
100
AcDbEntity
  8
寸法線
100
AcDbDimension
  2
*D39
 10
533.1383043764108
 20
707.1352913291486
 30
0.0
 11
523.7620740614501
 21
770.6352913291486
 31
0.0
 70
    32
 71
     5
 42
126.9999999999999
  3
My DIM1
100
AcDbAlignedDimension
 13
501.4882348870062
 23
834.1352913291485
 33
0.0
 14
501.4882348870062
 24
707.1352913291486
 34
0.0
 50
90.0
100
AcDbRotatedDimension
  0
DIMENSION
  5
C9C
330
1F
100
AcDbEntity
  8
寸法線
100
AcDbDimension
  2
*D40
 10
573.3748666852561
 20
947.1352913291486
 30
0.0
 11
563.9998666852559
 21
770.6352913291488
 31
0.0
 70
    32
 71
     5
 42
353.0
  3
My DIM1
100
AcDbAlignedDimension
 13
276.5
 23
594.1352913291487
 33
0.0
 14
276.5
 24
947.1352913291486
 34
0.0
 50
90.0
100
AcDbRotatedDimension
  0
DIMENSION
  5
CA9
330
1F
100
AcDbEntity
  8
寸法線
100
AcDbDimension
  2
*D41
 10
50.29951347600034
 20
160.0
 30
0.0
 11
40.92328316103969
 21
291.0000000000001
 31
0.0
 70
    32
 71
     5
 42
262.0
  3
My DIM1
100
AcDbAlignedDimension
 13
276.5
 23
422.0
 33
0.0
 14
104.5
 24
160.0
 34
0.0
 50
90.0
100
AcDbRotatedDimension
  0
DIMENSION
  5
CB6
330
1F
100
AcDbEntity
  8
寸法線
100
AcDbDimension
  2
*D42
 10
50.29951347600032
 20
100.0
 30
0.0
 11
40.92451347600031
 21
130.0
 31
0.0
 70
    32
 71
     5
 42
60.0
  3
My DIM1
100
AcDbAlignedDimension
 13
104.5
 23
160.0
 33
0.0
 14
111.75
 24
100.0
 34
0.0
 50
90.0
100
AcDbRotatedDimension
1001
ACAD
1000
DSTYLE
1002
{
1070
   279
1070
     1
1002
}
  0
DIMENSION
  5
CC3
330
1F
100
AcDbEntity
  8
寸法線
100
AcDbDimension
  2
*D43
 10
50.29951347600031
 20
21.80000000000002
 30
0.0
 11
40.92328316103968
 21
60.90000000000003
 31
0.0
 70
    32
 71
     5
 42
78.20000000000002
  3
My DIM1
100
AcDbAlignedDimension
 13
111.75
 23
100.0
 33
0.0
 14
276.5
 24
21.79999999999996
 34
0.0
 50
90.0
100
AcDbRotatedDimension
1001
ACAD
1000
DSTYLE
1002
{
1070
   279
1070
     1
1002
}
  0
DIMENSION
  5
CD6
330
1F
100
AcDbEntity
  8
寸法線
100
AcDbDimension
  2
*D44
 10
332.75
 20
443.6325544472738
 30
0.0
 11
276.5
 21
453.0087847622344
 31
0.0
 70
    32
  1
内径<>
 71
     5
 42
112.5
  3
My DIM1
100
AcDbAlignedDimension
 13
220.25
 23
422.0
 33
0.0
 14
332.75
 24
422.0
 34
0.0
100
AcDbRotatedDimension
  0
LINE
  5
CE3
330
1F
100
AcDbEntity
  8
隠線
100
AcDbLine
 10
220.25
 20
422.0
 30
0.0
 11
220.25
 21
382.0
 31
0.0
  0
DIMENSION
  5
CE4
330
1F
100
AcDbEntity
  8
寸法線
100
AcDbDimension
  2
*D45
 10
221.25
 20
49.10656817952895
 30
0.0
 11
166.7586252432256
 21
49.10656817952895
 31
0.0
 70
   160
  1
外径\P<>
 71
     5
 42
109.5
  3
My DIM1
100
AcDbAlignedDimension
 13
111.75
 23
100.0
 33
0.0
 14
221.25
 24
100.0
 34
0.0
100
AcDbRotatedDimension
  0
MULTILEADER
  5
D43
330
1F
100
AcDbEntity
  8
寸法線
 92
      536
310
18020000100000000C00000010000000040000000C00000016000000000000C00C00000013000000112700003C0000000600000002000000F0125C9A2F717F40A07C2809344470400000000000000000E63BB829F2767F40A07C28093444704000000000000000000C00000013000000010000000C00000014000000010000
310
0054000000070000000300000074BFE111F66D7E40AD53423CA3926C400000000000000000D078F2A35A467E40609C99F5DA2B6C4000000000000000008F661323275B7E40CE0F9DE0C5A66C4000000000000000000C00000013000000891300003C000000060000000200000001937A9A8E647E40BDB16F8EB49C6C400000
310
000000000000F0125C9A2F717F40A07C28093444704000000000000000000C000000130000009A3A00000C00000016000000000000C00C00000012000000FF7F00000C00000017000000FFFFFFFF0C00000016000000000000C00C00000013000000993A0000B40000000B000000E63BB829F2967F4006E38E6F9A2A704000
310
0000000000000000000000000000000000000000000000000000000000F03F000000000000F03F00000000000000000000000000000000925B8E71837B8362834E8358000063000C000000010000000000000000001040000000000000F03F0000000000000000000000000000F03F00000000000000000000000000000000
310
0000000069736F63702E736878007600626967666F6E742E73687800
100
AcDbMLeader
300
CONTEXT_DATA{
 40
1.0
 10
503.434121818222
 20
260.262704046394
 30
0.0
 41
4.0
140
4.0
145
2.0
174
     1
175
     6
176
     0
177
     0
290
     1
304
端子ボックス
 11
0.0
 21
0.0
 31
1.0
340
11
 12
505.434121818222
 22
262.662704046394
 32
0.0
 13
1.0
 23
0.0
 33
0.0
 42
0.0
 43
0.0
 44
0.0
 45
1.0
170
     1
 90
-1073741824
171
     1
172
     5
 91
-1073741824
141
0.0
 92
  3203144
291
     0
292
     0
173
     0
293
     0
142
0.0
143
0.0
294
     0
295
     0
296
     0
110
484.3971290084418
120
225.3704784393512
130
0.0
111
1.0
121
0.0
131
0.0
112
0.0
122
1.0
132
0.0
297
     0
302
LEADER{
290
     1
291
     1
 10
503.074121818222
 20
260.262704046394
 30
0.0
 11
1.0
 21
0.0
 31
0.0
 90
        0
 40
0.36
304
LEADER_LINE{
 10
484.3971290084418
 20
225.3704784393512
 30
0.0
 91
        0
305
}
303
}
301
}
340
B55
 90
   279552
170
     1
 91
-1056964608
341
14
171
    -2
290
     1
291
     1
 41
0.36
 42
4.0
172
     2
343
11
173
     1
 95
        6
174
     1
175
     0
 92
-1056964608
292
     0
 93
-1056964608
 10
1.0
 20
1.0
 30
1.0
 43
0.0
176
     0
293
     0
294
     0
178
     0
179
     1
 45
1.0
1001
ACAD_MLEADERVER
1070
     2
  0
VIEWPORT
  5
C49
102
{ACAD_XDICTIONARY
360
C4A
102
}
330
C3A
100
AcDbEntity
 67
     1
  8
0
100
AcDbViewport
 10
143.4359145164489
 20
204.9462418556213
 30
0.0
 40
792.7623743896484
 41
444.3035612792969
 68
     2
 69
     1
 12
143.4359145164489
 22
204.9462418556213
 13
0.0
 23
0.0
 14
10.0
 24
10.0
 15
10.0
 25
10.0
 16
0.0
 26
0.0
 36
1.0
 17
0.0
 27
0.0
 37
0.0
 42
50.0
 43
0.0
 44
0.0
 45
444.3035612792969
 50
0.0
 51
0.0
 72
   100
 90
   819232
  1

281
     0
 71
     1
 74
     0
110
0.0
120
0.0
130
0.0
111
1.0
121
0.0
131
0.0
112
0.0
122
1.0
132
0.0
 79
     0
146
0.0
  0
VIEWPORT
  5
C55
102
{ACAD_XDICTIONARY
360
C56
102
}
330
C3A
100
AcDbEntity
 67
     1
  8
補助線
100
AcDbViewport
 10
144.549345090466
 20
206.4297261153996
 30
0.0
 40
273.1615674895508
 41
397.5738052161251
 68
     1
 69
     2
 12
302.9143574041733
 22
482.7499572130952
 13
0.0
 23
0.0
 14
1.0
 24
1.0
 15
10.0
 25
10.0
 16
0.0
 26
0.0
 36
1.0
 17
0.0
 27
0.0
 37
0.0
 42
50.0
 43
0.0
 44
0.0
 45
1151.957733548437
 50
0.0
 51
0.0
 72
   100
 90
   819296
  1

281
     0
 71
     1
 74
     0
110
0.0
120
0.0
130
0.0
111
1.0
121
0.0
131
0.0
112
0.0
122
1.0
132
0.0
 79
     0
146
0.0
  0
ENDSEC
  0
SECTION
  2
OBJECTS
  0
DICTIONARY
  5
C
330
0
100
AcDbDictionary
281
     1
  3
ACAD_BACKGROUND
350
C2F
  3
ACAD_COLOR
350
B2F
  3
ACAD_GROUP
350
D
  3
ACAD_LAYOUT
350
1A
  3
ACAD_MATERIAL
350
B05
  3
ACAD_MLEADERSTYLE
350
B54
  3
ACAD_MLINESTYLE
350
17
  3
ACAD_PLOTSETTINGS
350
19
  3
ACAD_PLOTSTYLENAME
350
E
  3
ACAD_SCALELIST
350
B32
  3
ACAD_TABLESTYLE
350
B30
  3
ACAD_VISUALSTYLE
350
B1E
  3
ACDB_RECOMPOSE_DATA
350
D79
  3
AcDbVariableDictionary
350
B01
  3
DWGPROPS
350
D7A
  0
DICTIONARY
  5
B72
330
2
100
AcDbDictionary
280
     1
281
     1
  3
ACAD_LAYERSTATES
360
B73
  0
DICTIONARY
  5
D44
330
10
100
AcDbDictionary
280
     1
281
     1
  3
ADSK_XREC_LAYER_RECONCILED
360
D45
  0
DICTIONARY
  5
D46
330
49
100
AcDbDictionary
280
     1
281
     1
  3
ADSK_XREC_LAYER_RECONCILED
360
D47
  0
DICTIONARY
  5
D48
330
4A
100
AcDbDictionary
280
     1
281
     1
  3
ADSK_XREC_LAYER_RECONCILED
360
D49
  0
DICTIONARY
  5
D4A
330
4B
100
AcDbDictionary
280
     1
281
     1
  3
ADSK_XREC_LAYER_RECONCILED
360
D4B
  0
DICTIONARY
  5
D4C
330
4C
100
AcDbDictionary
280
     1
281
     1
  3
ADSK_XREC_LAYER_RECONCILED
360
D4D
  0
DICTIONARY
  5
D4E
330
4D
100
AcDbDictionary
280
     1
281
     1
  3
ADSK_XREC_LAYER_RECONCILED
360
D4F
  0
DICTIONARY
  5
D50
330
6B
100
AcDbDictionary
280
     1
281
     1
  3
ADSK_XREC_LAYER_RECONCILED
360
D51
  0
DICTIONARY
  5
D52
330
71
100
AcDbDictionary
280
     1
281
     1
  3
ADSK_XREC_LAYER_RECONCILED
360
D53
  0
DICTIONARY
  5
D54
330
26A
100
AcDbDictionary
280
     1
281
     1
  3
ADSK_XREC_LAYER_RECONCILED
360
D55
  0
DICTIONARY
  5
D56
330
4AD
100
AcDbDictionary
280
     1
281
     1
  3
ADSK_XREC_LAYER_RECONCILED
360
D57
  0
DICTIONARY
  5
CD1
330
1F
100
AcDbDictionary
280
     1
281
     1
  3
ACAD_SORTENTS
360
CD2
  0
DICTIONARY
  5
C4A
330
C49
100
AcDbDictionary
280
     1
281
     1
  3
ACAD_XREC_ROUNDTRIP
360
D84
  3
ASDK_XREC_ANNOTATION_SCALE_INFO
360
C4B
  0
DICTIONARY
  5
C56
330
C55
100
AcDbDictionary
280
     1
281
     1
  3
ACAD_XREC_ROUNDTRIP
360
D85
  3
ASDK_XREC_ANNOTATION_SCALE_INFO
360
C57
  0
DICTIONARY
  5
C2F
102
{ACAD_REACTORS
330
C
102
}
330
C
100
AcDbDictionary
281
     1
  0
DICTIONARY
  5
B2F
102
{ACAD_REACTORS
330
C
102
}
330
C
100
AcDbDictionary
281
     1
  0
DICTIONARY
  5
D
102
{ACAD_REACTORS
330
C
102
}
330
C
100
AcDbDictionary
281
     1
  0
DICTIONARY
  5
1A
102
{ACAD_REACTORS
330
C
102
}
330
C
100
AcDbDictionary
281
     1
  3
Model
350
22
  3
レイアウト1
350
C3B
  0
DICTIONARY
  5
B05
102
{ACAD_REACTORS
330
C
102
}
330
C
100
AcDbDictionary
281
     1
  3
ByBlock
350
B0E
  3
ByLayer
350
B06
  3
Global
350
B16
  0
DICTIONARY
  5
B54
102
{ACAD_REACTORS
330
C
102
}
330
C
100
AcDbDictionary
281
     1
  3
Standard
350
B55
  0
DICTIONARY
  5
17
102
{ACAD_REACTORS
330
C
102
}
330
C
100
AcDbDictionary
281
     1
  3
Standard
350
18
  0
DICTIONARY
  5
19
102
{ACAD_REACTORS
330
C
102
}
330
C
100
AcDbDictionary
281
     1
  0
ACDBDICTIONARYWDFLT
  5
E
102
{ACAD_REACTORS
330
C
102
}
330
C
100
AcDbDictionary
281
     1
  3
Normal
350
F
100
AcDbDictionaryWithDefault
340
F
  0
DICTIONARY
  5
B32
102
{ACAD_REACTORS
330
C
102
}
330
C
100
AcDbDictionary
281
     1
  3
A0
350
B33
  3
A1
350
B34
  3
A2
350
B35
  3
A3
350
B36
  3
A4
350
B37
  3
A5
350
B38
  3
A6
350
B39
  3
A7
350
B3A
  3
A8
350
B3B
  3
A9
350
B3C
  3
B0
350
B3D
  3
B1
350
B3E
  3
B2
350
B3F
  3
B3
350
B40
  3
B4
350
B41
  3
B5
350
B42
  3
B6
350
B43
  3
B7
350
B44
  3
B8
350
B45
  3
B9
350
B46
  3
C0
350
B47
  3
C1
350
B48
  3
C2
350
B49
  3
C3
350
B4A
  3
C4
350
B4B
  3
C5
350
B4C
  3
C6
350
B4D
  3
C7
350
B4E
  3
C8
350
B4F
  3
C9
350
B50
  3
D0
350
B51
  3
D1
350
B52
  3
D2
350
B53
  0
DICTIONARY
  5
B30
102
{ACAD_REACTORS
330
C
102
}
330
C
100
AcDbDictionary
281
     1
  3
Standard
350
B31
  0
DICTIONARY
  5
B1E
102
{ACAD_REACTORS
330
C
102
}
330
C
100
AcDbDictionary
281
     1
  3
2dWireframe
350
B24
  3
3D Hidden
350
B26
  3
3dWireframe
350
B25
  3
Basic
350
B23
  3
Brighten
350
B2A
  3
ColorChange
350
B2E
  3
Conceptual
350
B27
  3
Dim
350
B29
  3
Facepattern
350
B2D
  3
Flat
350
B1F
  3
FlatWithEdges
350
B20
  3
Gouraud
350
B21
  3
GouraudWithEdges
350
B22
  3
Linepattern
350
B2C
  3
Realistic
350
B28
  3
Thicken
350
B2B
  0
XRECORD
  5
D79
102
{ACAD_REACTORS
330
C
102
}
330
C
100
AcDbXrecord
280
     1
 90
        1
330
B31
  0
DICTIONARY
  5
B01
102
{ACAD_REACTORS
330
C
102
}
330
C
100
AcDbDictionary
281
     1
  3
CANNOSCALE
350
D73
  3
CMLEADERSTYLE
350
D72
  3
CTABLESTYLE
350
D71
  3
DIMASSOC
350
B02
  3
INDEXCTL
350
D75
  3
SORTENTS
350
D74
  0
XRECORD
  5
D7A
102
{ACAD_REACTORS
330
C
102
}
330
C
100
AcDbXrecord
280
     1
  1
DWGPROPS COOKIE
  2

  3

  4

  6

  7

  8
有限会社きょうじ
  9

300
=
301
=
302
=
303
=
304
=
305
=
306
=
307
=
308
=
309
=
 40
0.2659167824074074
 41
2451958.815310995
 42
2455000.569883912
  1

 90
        0
  0
DICTIONARY
  5
B73
102
{ACAD_REACTORS
330
B72
102
}
330
B72
100
AcDbDictionary
281
     1
  0
XRECORD
  5
D45
102
{ACAD_REACTORS
330
D44
102
}
330
D44
100
AcDbXrecord
280
     1
290
     1
  0
XRECORD
  5
D47
102
{ACAD_REACTORS
330
D46
102
}
330
D46
100
AcDbXrecord
280
     1
290
     1
  0
XRECORD
  5
D49
102
{ACAD_REACTORS
330
D48
102
}
330
D48
100
AcDbXrecord
280
     1
290
     1
  0
XRECORD
  5
D4B
102
{ACAD_REACTORS
330
D4A
102
}
330
D4A
100
AcDbXrecord
280
     1
290
     1
  0
XRECORD
  5
D4D
102
{ACAD_REACTORS
330
D4C
102
}
330
D4C
100
AcDbXrecord
280
     1
290
     1
  0
XRECORD
  5
D4F
102
{ACAD_REACTORS
330
D4E
102
}
330
D4E
100
AcDbXrecord
280
     1
290
     1
  0
XRECORD
  5
D51
102
{ACAD_REACTORS
330
D50
102
}
330
D50
100
AcDbXrecord
280
     1
290
     1
  0
XRECORD
  5
D53
102
{ACAD_REACTORS
330
D52
102
}
330
D52
100
AcDbXrecord
280
     1
290
     1
  0
XRECORD
  5
D55
102
{ACAD_REACTORS
330
D54
102
}
330
D54
100
AcDbXrecord
280
     1
290
     1
  0
XRECORD
  5
D57
102
{ACAD_REACTORS
330
D56
102
}
330
D56
100
AcDbXrecord
280
     1
290
     1
  0
SORTENTSTABLE
  5
CD2
102
{ACAD_REACTORS
330
CD1
102
}
330
CD1
100
AcDbSortentsTable
330
1F
331
A40
  5
A40
331
A82
  5
A82
331
8BB
  5
8BB
331
881
  5
881
331
ABE
  5
ABE
331
AF0
  5
AF0
331
93F
  5
93F
331
936
  5
936
331
8F4
  5
8F4
331
8A2
  5
8A2
331
808
  5
808
331
C1F
  5
C1F
331
BDB
  5
BDB
331
9A2
  5
9A2
331
6AF
  5
6AF
331
606
  5
606
331
90B
  5
90B
331
ABC
  5
ABC
331
A4F
  5
A4F
331
9B1
  5
9B1
331
ACD
  5
ACD
331
AB3
  5
AB3
331
95E
  5
95E
331
8A0
  5
8A0
331
6D8
  5
6D8
331
BD9
  5
BD9
331
A3E
  5
A3E
331
9A0
  5
9A0
331
87F
  5
87F
331
6C7
  5
6C7
331
6B6
  5
6B6
331
604
  5
604
331
ABA
  5
ABA
331
93B
  5
93B
331
A03
  5
A03
331
ACB
  5
ACB
331
AB1
  5
AB1
331
89E
  5
89E
331
804
  5
804
331
BD7
  5
BD7
331
99E
  5
99E
331
87D
  5
87D
331
6C5
  5
6C5
331
6B4
  5
6B4
331
602
  5
602
331
939
  5
939
331
9AD
  5
9AD
331
A4B
  5
A4B
331
802
  5
802
331
6B2
  5
6B2
331
600
  5
600
331
AC9
  5
AC9
331
89C
  5
89C
331
BD5
  5
BD5
331
9BE
  5
9BE
331
A6C
  5
A6C
331
87B
  5
87B
331
6C3
  5
6C3
331
274
  5
274
331
BE4
  5
BE4
331
800
  5
800
331
6D2
  5
6D2
331
6B0
  5
6B0
331
A8B
  5
A8B
331
AC7
  5
AC7
331
92E
  5
92E
331
8E4
  5
8E4
331
89A
  5
89A
331
BD3
  5
BD3
331
9F6
  5
9F6
331
9BC
  5
9BC
331
C75
  5
C75
331
879
  5
879
331
7E7
  5
7E7
331
7A3
  5
7A3
331
6C1
  5
6C1
331
5FE
  5
5FE
331
272
  5
272
331
9FD
  5
9FD
331
A47
  5
A47
331
7FE
  5
7FE
331
6D0
  5
6D0
331
AC5
  5
AC5
331
92C
  5
92C
331
BD1
  5
BD1
331
A9A
  5
A9A
331
9F4
  5
9F4
331
9BA
  5
9BA
331
AD6
  5
AD6
331
8FB
  5
8FB
331
6BF
  5
6BF
331
270
  5
270
331
C24
  5
C24
331
A45
  5
A45
331
9FB
  5
9FB
331
AA9
  5
AA9
331
BCF
  5
BCF
331
AF5
  5
AF5
331
AC3
  5
AC3
331
A66
  5
A66
331
9F2
  5
9F2
331
9B8
  5
9B8
331
92A
  5
92A
331
AD4
  5
AD4
331
8F9
  5
8F9
331
9A7
  5
9A7
331
6CE
  5
6CE
331
26E
  5
26E
331
C22
  5
C22
331
A85
  5
A85
331
A43
  5
A43
331
BCD
  5
BCD
331
AF3
  5
AF3
331
A0A
  5
A0A
331
9B6
  5
9B6
331
963
  5
963
331
8F7
  5
8F7
331
6CC
  5
6CC
331
6BB
  5
6BB
331
609
  5
609
331
C20
  5
C20
331
A41
  5
A41
331
A83
  5
A83
331
882
  5
882
331
ABF
  5
ABF
331
AF1
  5
AF1
331
9B4
  5
9B4
331
C8F
  5
CC3
331
AB6
  5
AB6
331
9A3
  5
9A3
331
961
  5
961
331
937
  5
937
331
8F5
  5
8F5
331
8A3
  5
8A3
331
7BD
  5
7BD
331
6DB
  5
6DB
331
6B9
  5
6B9
331
607
  5
607
331
880
  5
880
331
ABD
  5
ABD
331
9B2
  5
9B2
331
ACE
  5
ACE
331
AB4
  5
AB4
331
8A1
  5
8A1
331
6D9
  5
6D9
331
C1E
  5
C1E
331
BDA
  5
BDA
331
9A1
  5
9A1
331
6C8
  5
6C8
331
605
  5
605
331
C9C
  5
CD0
331
ABB
  5
ABB
331
93C
  5
93C
331
CB6
  5
CD4
331
AED
  5
AED
331
A4E
  5
A4E
331
ACC
  5
ACC
331
AB2
  5
AB2
331
89F
  5
89F
331
BD8
  5
BD8
331
99F
  5
99F
331
87E
  5
87E
331
6C6
  5
6C6
331
6B5
  5
6B5
331
603
  5
603
331
AB9
  5
AB9
331
9AE
  5
9AE
331
601
  5
601
331
ACA
  5
ACA
331
931
  5
931
331
89D
  5
89D
331
BD6
  5
BD6
331
9BF
  5
9BF
331
87C
  5
87C
331
6C4
  5
6C4
331
275
  5
275
331
938
  5
938
331
BE5
  5
BE5
331
A4A
  5
A4A
331
9AC
  5
9AC
331
6B1
  5
6B1
331
A8C
  5
A8C
331
CA9
  5
CD3
331
AC8
  5
AC8
331
92F
  5
92F
331
8E5
  5
8E5
331
89B
  5
89B
331
CC3
  5
CD5
331
BD4
  5
BD4
331
9BD
  5
9BD
331
87A
  5
87A
331
7A4
  5
7A4
331
6C2
  5
6C2
331
5FF
  5
5FF
331
273
  5
273
331
9AA
  5
9AA
331
6D1
  5
6D1
331
A8A
  5
A8A
331
AC6
  5
AC6
331
92D
  5
92D
331
BD2
  5
BD2
331
9F5
  5
9F5
331
9BB
  5
9BB
331
8AA
  5
8AA
331
7E6
  5
7E6
331
6C0
  5
6C0
331
5FD
  5
5FD
331
271
  5
271
331
C25
  5
C25
331
9FC
  5
9FC
331
7FD
  5
7FD
331
92B
  5
92B
331
BD0
  5
BD0
331
AF6
  5
AF6
331
AD5
  5
AD5
331
9F3
  5
9F3
331
6CF
  5
6CF
331
6BE
  5
6BE
331
26F
  5
26F
331
C23
  5
C23
331
A44
  5
A44
331
9FA
  5
9FA
331
AC2
  5
AC2
331
BCE
  5
BCE
331
AF4
  5
AF4
331
A97
  5
A97
331
A65
  5
A65
331
9B7
  5
9B7
331
943
  5
943
331
AD3
  5
AD3
331
964
  5
964
331
8F8
  5
8F8
331
6CD
  5
6CD
331
60A
  5
60A
331
C21
  5
C21
331
A84
  5
A84
331
883
  5
883
331
AC0
  5
AC0
331
941
  5
941
331
9B5
  5
9B5
331
A09
  5
A09
331
9EF
  5
9EF
331
7BE
  5
7BE
331
6DC
  5
6DC
331
6BA
  5
6BA
331
608
  5
608
331
8F6
  5
8F6
331
8A4
  5
8A4
331
AB7
  5
AB7
331
962
  5
962
331
9A4
  5
9A4
331
6CB
  5
6CB
331
58F
  5
58F
331
27C
  5
27C
  0
XRECORD
  5
D84
102
{ACAD_REACTORS
330
C4A
102
}
330
C4A
100
AcDbXrecord
280
     1
102
SHADEPLOT
 70
     0
  0
XRECORD
  5
C4B
102
{ACAD_REACTORS
330
C4A
102
}
330
C4A
100
AcDbXrecord
280
     1
 90
        1
340
B33
  0
XRECORD
  5
D85
102
{ACAD_REACTORS
330
C56
102
}
330
C56
100
AcDbXrecord
280
     1
102
SHADEPLOT
 70
     0
  0
XRECORD
  5
C57
102
{ACAD_REACTORS
330
C56
102
}
330
C56
100
AcDbXrecord
280
     1
 90
        1
340
B33
  0
LAYOUT
  5
22
102
{ACAD_XDICTIONARY
360
D7B
102
}
102
{ACAD_REACTORS
330
1A
102
}
330
1A
100
AcDbPlotSettings
  1

  2
RICOH NX-100 RPDL
  4
A4
  6

 40
5.873749732971191
 41
4.794249534606933
 42
7.651748657226562
 43
5.873748779296875
 44
210.0579986572266
 45
296.9259948730469
 46
0.0
 47
0.0
 48
0.0
 49
0.0
140
0.0
141
0.0
142
1.0
143
1.0
 70
 11952
 72
     1
 73
     1
 74
     0
  7

 75
     0
147
1.0
148
-163.0460295381418
149
22.0245456056989
100
AcDbLayout
  1
Model
 70
     1
 71
     0
 10
0.0
 20
0.0
 11
12.0
 21
9.0
 12
0.0
 22
0.0
 32
0.0
 14
0.0
 24
0.0
 34
0.0
 15
0.0
 25
0.0
 35
0.0
146
0.0
 13
0.0
 23
0.0
 33
0.0
 16
1.0
 26
0.0
 36
0.0
 17
0.0
 27
1.0
 37
0.0
 76
     0
330
1F
331
B03
  0
LAYOUT
  5
C3B
102
{ACAD_XDICTIONARY
360
C5F
102
}
102
{ACAD_REACTORS
330
1A
102
}
330
1A
100
AcDbPlotSettings
  1

  2
SHARP AR-266FG
  4
A3
  6

 40
5.027082920074462
 41
5.027085781097412
 42
5.027099609375
 43
5.027069091796875
 44
296.9259948730469
 45
419.9466552734374
 46
0.0
 47
0.0
 48
0.0
 49
0.0
140
0.0
141
0.0
142
1.0
143
1.0
 70
   688
 72
     1
 73
     0
 74
     5
  7

 75
    16
147
1.0
148
0.0
149
0.0
100
AcDbLayout
  1
レイアウト1
 70
     1
 71
     1
 10
-5.027082920074462
 20
-5.027085781097412
 11
291.8989119529724
 21
414.9195694923401
 12
0.0
 22
0.0
 32
0.0
 14
7.968561345690659
 24
7.642823507337084
 34
0.0
 15
281.1301288352414
 25
405.2166287234621
 35
0.0
146
0.0
 13
0.0
 23
0.0
 33
0.0
 16
1.0
 26
0.0
 36
0.0
 17
0.0
 27
1.0
 37
0.0
 76
     0
330
C3A
331
C55
1001
ACAD_PSEXT
1000
SHARP AR-266FG
1000
SHARP AR-266FG
1000
USB002
1000

1070
     0
  0
MATERIAL
  5
B0E
102
{ACAD_XDICTIONARY
360
B0F
102
}
102
{ACAD_REACTORS
330
B05
102
}
330
B05
100
AcDbMaterial
  1
ByBlock
 72
     0
 43
0.0008202099737533
 43
0.0
 43
0.0
 43
0.0
 43
0.0
 43
0.0008202099737533
 43
0.0
 43
0.0
 43
0.0
 43
0.0
 43
1.0
 43
0.0
 43
0.0
 43
0.0
 43
0.0
 43
1.0
 77
     0
 47
0.0008202099737533
 47
0.0
 47
0.0
 47
0.0
 47
0.0
 47
0.0008202099737533
 47
0.0
 47
0.0
 47
0.0
 47
0.0
 47
1.0
 47
0.0
 47
0.0
 47
0.0
 47
0.0
 47
1.0
171
     0
 49
0.0008202099737533
 49
0.0
 49
0.0
 49
0.0
 49
0.0
 49
0.0008202099737533
 49
0.0
 49
0.0
 49
0.0
 49
0.0
 49
1.0
 49
0.0
 49
0.0
 49
0.0
 49
0.0
 49
1.0
175
     0
142
0.0008202099737533
142
0.0
142
0.0
142
0.0
142
0.0
142
0.0008202099737533
142
0.0
142
0.0
142
0.0
142
0.0
142
1.0
142
0.0
142
0.0
142
0.0
142
0.0
142
1.0
179
     0
144
0.0008202099737533
144
0.0
144
0.0
144
0.0
144
0.0
144
0.0008202099737533
144
0.0
144
0.0
144
0.0
144
0.0
144
1.0
144
0.0
144
0.0
144
0.0
144
0.0
144
1.0
147
0.0008202099737533
147
0.0
147
0.0
147
0.0
147
0.0
147
0.0008202099737533
147
0.0
147
0.0
147
0.0
147
0.0
147
1.0
147
0.0
147
0.0
147
0.0
147
0.0
147
1.0
  0
MATERIAL
  5
B06
102
{ACAD_XDICTIONARY
360
B07
102
}
102
{ACAD_REACTORS
330
B05
102
}
330
B05
100
AcDbMaterial
  1
ByLayer
 72
     0
 43
0.0008202099737533
 43
0.0
 43
0.0
 43
0.0
 43
0.0
 43
0.0008202099737533
 43
0.0
 43
0.0
 43
0.0
 43
0.0
 43
1.0
 43
0.0
 43
0.0
 43
0.0
 43
0.0
 43
1.0
 77
     0
 47
0.0008202099737533
 47
0.0
 47
0.0
 47
0.0
 47
0.0
 47
0.0008202099737533
 47
0.0
 47
0.0
 47
0.0
 47
0.0
 47
1.0
 47
0.0
 47
0.0
 47
0.0
 47
0.0
 47
1.0
171
     0
 49
0.0008202099737533
 49
0.0
 49
0.0
 49
0.0
 49
0.0
 49
0.0008202099737533
 49
0.0
 49
0.0
 49
0.0
 49
0.0
 49
1.0
 49
0.0
 49
0.0
 49
0.0
 49
0.0
 49
1.0
175
     0
142
0.0008202099737533
142
0.0
142
0.0
142
0.0
142
0.0
142
0.0008202099737533
142
0.0
142
0.0
142
0.0
142
0.0
142
1.0
142
0.0
142
0.0
142
0.0
142
0.0
142
1.0
179
     0
144
0.0008202099737533
144
0.0
144
0.0
144
0.0
144
0.0
144
0.0008202099737533
144
0.0
144
0.0
144
0.0
144
0.0
144
1.0
144
0.0
144
0.0
144
0.0
144
0.0
144
1.0
147
0.0008202099737533
147
0.0
147
0.0
147
0.0
147
0.0
147
0.0008202099737533
147
0.0
147
0.0
147
0.0
147
0.0
147
1.0
147
0.0
147
0.0
147
0.0
147
0.0
147
1.0
  0
MATERIAL
  5
B16
102
{ACAD_XDICTIONARY
360
B17
102
}
102
{ACAD_REACTORS
330
B05
102
}
330
B05
100
AcDbMaterial
  1
Global
 72
     0
 43
0.0008202099737533
 43
0.0
 43
0.0
 43
0.0
 43
0.0
 43
0.0008202099737533
 43
0.0
 43
0.0
 43
0.0
 43
0.0
 43
1.0
 43
0.0
 43
0.0
 43
0.0
 43
0.0
 43
1.0
 77
     0
 47
0.0008202099737533
 47
0.0
 47
0.0
 47
0.0
 47
0.0
 47
0.0008202099737533
 47
0.0
 47
0.0
 47
0.0
 47
0.0
 47
1.0
 47
0.0
 47
0.0
 47
0.0
 47
0.0
 47
1.0
171
     0
 49
0.0008202099737533
 49
0.0
 49
0.0
 49
0.0
 49
0.0
 49
0.0008202099737533
 49
0.0
 49
0.0
 49
0.0
 49
0.0
 49
1.0
 49
0.0
 49
0.0
 49
0.0
 49
0.0
 49
1.0
175
     0
142
0.0008202099737533
142
0.0
142
0.0
142
0.0
142
0.0
142
0.0008202099737533
142
0.0
142
0.0
142
0.0
142
0.0
142
1.0
142
0.0
142
0.0
142
0.0
142
0.0
142
1.0
179
     0
144
0.0008202099737533
144
0.0
144
0.0
144
0.0
144
0.0
144
0.0008202099737533
144
0.0
144
0.0
144
0.0
144
0.0
144
1.0
144
0.0
144
0.0
144
0.0
144
0.0
144
1.0
147
0.0008202099737533
147
0.0
147
0.0
147
0.0
147
0.0
147
0.0008202099737533
147
0.0
147
0.0
147
0.0
147
0.0
147
1.0
147
0.0
147
0.0
147
0.0
147
0.0
147
1.0
  0
MLEADERSTYLE
  5
B55
102
{ACAD_REACTORS
330
B54
330
D43
102
}
330
B54
100
AcDbMLeaderStyle
170
     2
171
     1
172
     0
 90
        2
 40
0.0
 41
0.0
173
     1
 91
-1056964608
340
14
 92
       -2
290
     1
 42
2.0
291
     1
 43
0.36
  3
Standard
 44
4.0
300

342
11
174
     1
178
     6
175
     1
176
     0
 93
-1056964608
 45
4.0
292
     0
297
     0
 46
4.0
 94
-1056964608
 47
1.0
 49
1.0
140
1.0
293
     1
141
0.0
294
     1
177
     0
142
1.0
295
     0
296
     0
143
0.125
1001
ACAD_MLEADERVER
1070
     2
  0
MLINESTYLE
  5
18
102
{ACAD_REACTORS
330
17
102
}
330
17
100
AcDbMlineStyle
  2
STANDARD
 70
     0
  3

 62
   256
 51
90.0
 52
90.0
 71
     2
 49
0.5
 62
   256
  6
BYLAYER
 49
-0.5
 62
   256
  6
BYLAYER
  0
ACDBPLACEHOLDER
  5
F
102
{ACAD_REACTORS
330
E
102
}
330
E
  0
SCALE
  5
B33
102
{ACAD_REACTORS
330
B32
102
}
330
B32
100
AcDbScale
 70
     0
300
1:1
140
1.0
141
1.0
290
     1
  0
SCALE
  5
B34
102
{ACAD_REACTORS
330
B32
102
}
330
B32
100
AcDbScale
 70
     0
300
1:2
140
1.0
141
2.0
290
     0
  0
SCALE
  5
B35
102
{ACAD_REACTORS
330
B32
102
}
330
B32
100
AcDbScale
 70
     0
300
1:4
140
1.0
141
4.0
290
     0
  0
SCALE
  5
B36
102
{ACAD_REACTORS
330
B32
102
}
330
B32
100
AcDbScale
 70
     0
300
1:5
140
1.0
141
5.0
290
     0
  0
SCALE
  5
B37
102
{ACAD_REACTORS
330
B32
102
}
330
B32
100
AcDbScale
 70
     0
300
1:8
140
1.0
141
8.0
290
     0
  0
SCALE
  5
B38
102
{ACAD_REACTORS
330
B32
102
}
330
B32
100
AcDbScale
 70
     0
300
1:10
140
1.0
141
10.0
290
     0
  0
SCALE
  5
B39
102
{ACAD_REACTORS
330
B32
102
}
330
B32
100
AcDbScale
 70
     0
300
1:16
140
1.0
141
16.0
290
     0
  0
SCALE
  5
B3A
102
{ACAD_REACTORS
330
B32
102
}
330
B32
100
AcDbScale
 70
     0
300
1:20
140
1.0
141
20.0
290
     0
  0
SCALE
  5
B3B
102
{ACAD_REACTORS
330
B32
102
}
330
B32
100
AcDbScale
 70
     0
300
1:30
140
1.0
141
30.0
290
     0
  0
SCALE
  5
B3C
102
{ACAD_REACTORS
330
B32
102
}
330
B32
100
AcDbScale
 70
     0
300
1:40
140
1.0
141
40.0
290
     0
  0
SCALE
  5
B3D
102
{ACAD_REACTORS
330
B32
102
}
330
B32
100
AcDbScale
 70
     0
300
1:50
140
1.0
141
50.0
290
     0
  0
SCALE
  5
B3E
102
{ACAD_REACTORS
330
B32
102
}
330
B32
100
AcDbScale
 70
     0
300
1:100
140
1.0
141
100.0
290
     0
  0
SCALE
  5
B3F
102
{ACAD_REACTORS
330
B32
102
}
330
B32
100
AcDbScale
 70
     0
300
2:1
140
2.0
141
1.0
290
     0
  0
SCALE
  5
B40
102
{ACAD_REACTORS
330
B32
102
}
330
B32
100
AcDbScale
 70
     0
300
4:1
140
4.0
141
1.0
290
     0
  0
SCALE
  5
B41
102
{ACAD_REACTORS
330
B32
102
}
330
B32
100
AcDbScale
 70
     0
300
8:1
140
8.0
141
1.0
290
     0
  0
SCALE
  5
B42
102
{ACAD_REACTORS
330
B32
102
}
330
B32
100
AcDbScale
 70
     0
300
10:1
140
10.0
141
1.0
290
     0
  0
SCALE
  5
B43
102
{ACAD_REACTORS
330
B32
102
}
330
B32
100
AcDbScale
 70
     0
300
100:1
140
100.0
141
1.0
290
     0
  0
SCALE
  5
B44
102
{ACAD_REACTORS
330
B32
102
}
330
B32
100
AcDbScale
 70
     0
300
1/128" = 1'-0"
140
0.0078125
141
12.0
290
     0
  0
SCALE
  5
B45
102
{ACAD_REACTORS
330
B32
102
}
330
B32
100
AcDbScale
 70
     0
300
1/64" = 1'-0"
140
0.015625
141
12.0
290
     0
  0
SCALE
  5
B46
102
{ACAD_REACTORS
330
B32
102
}
330
B32
100
AcDbScale
 70
     0
300
1/32" = 1'-0"
140
0.03125
141
12.0
290
     0
  0
SCALE
  5
B47
102
{ACAD_REACTORS
330
B32
102
}
330
B32
100
AcDbScale
 70
     0
300
1/16" = 1'-0"
140
0.0625
141
12.0
290
     0
  0
SCALE
  5
B48
102
{ACAD_REACTORS
330
B32
102
}
330
B32
100
AcDbScale
 70
     0
300
3/32" = 1'-0"
140
0.09375
141
12.0
290
     0
  0
SCALE
  5
B49
102
{ACAD_REACTORS
330
B32
102
}
330
B32
100
AcDbScale
 70
     0
300
1/8" = 1'-0"
140
0.125
141
12.0
290
     0
  0
SCALE
  5
B4A
102
{ACAD_REACTORS
330
B32
102
}
330
B32
100
AcDbScale
 70
     0
300
3/16" = 1'-0"
140
0.1875
141
12.0
290
     0
  0
SCALE
  5
B4B
102
{ACAD_REACTORS
330
B32
102
}
330
B32
100
AcDbScale
 70
     0
300
1/4" = 1'-0"
140
0.25
141
12.0
290
     0
  0
SCALE
  5
B4C
102
{ACAD_REACTORS
330
B32
102
}
330
B32
100
AcDbScale
 70
     0
300
3/8" = 1'-0"
140
0.375
141
12.0
290
     0
  0
SCALE
  5
B4D
102
{ACAD_REACTORS
330
B32
102
}
330
B32
100
AcDbScale
 70
     0
300
1/2" = 1'-0"
140
0.5
141
12.0
290
     0
  0
SCALE
  5
B4E
102
{ACAD_REACTORS
330
B32
102
}
330
B32
100
AcDbScale
 70
     0
300
3/4" = 1'-0"
140
0.75
141
12.0
290
     0
  0
SCALE
  5
B4F
102
{ACAD_REACTORS
330
B32
102
}
330
B32
100
AcDbScale
 70
     0
300
1" = 1'-0"
140
1.0
141
12.0
290
     0
  0
SCALE
  5
B50
102
{ACAD_REACTORS
330
B32
102
}
330
B32
100
AcDbScale
 70
     0
300
1-1/2" = 1'-0"
140
1.5
141
12.0
290
     0
  0
SCALE
  5
B51
102
{ACAD_REACTORS
330
B32
102
}
330
B32
100
AcDbScale
 70
     0
300
3" = 1'-0"
140
3.0
141
12.0
290
     0
  0
SCALE
  5
B52
102
{ACAD_REACTORS
330
B32
102
}
330
B32
100
AcDbScale
 70
     0
300
6" = 1'-0"
140
6.0
141
12.0
290
     0
  0
SCALE
  5
B53
102
{ACAD_REACTORS
330
B32
102
}
330
B32
100
AcDbScale
 70
     0
300
1'-0" = 1'-0"
140
12.0
141
12.0
290
     0
  0
TABLESTYLE
  5
B31
102
{ACAD_XDICTIONARY
360
D77
102
}
102
{ACAD_REACTORS
330
B30
102
}
330
B30
100
AcDbTableStyle
  3
Standard
 70
     0
 71
     0
 40
1.5
 41
1.5
280
     0
281
     0
  7
Standard
140
4.5
170
     2
 62
     0
 63
     7
283
     0
274
    -2
284
     1
 64
     0
275
    -2
285
     1
 65
     0
276
    -2
286
     1
 66
     0
277
    -2
287
     1
 67
     0
278
    -2
288
     1
 68
     0
279
    -2
289
     1
 69
     0
  7
Standard
140
6.0
170
     5
 62
     0
 63
     7
283
     0
274
    -2
284
     1
 64
     0
275
    -2
285
     1
 65
     0
276
    -2
286
     1
 66
     0
277
    -2
287
     1
 67
     0
278
    -2
288
     1
 68
     0
279
    -2
289
     1
 69
     0
  7
Standard
140
4.5
170
     5
 62
     0
 63
     7
283
     0
274
    -2
284
     1
 64
     0
275
    -2
285
     1
 65
     0
276
    -2
286
     1
 66
     0
277
    -2
287
     1
 67
     0
278
    -2
288
     1
 68
     0
279
    -2
289
     1
 69
     0
  0
VISUALSTYLE
  5
B24
102
{ACAD_REACTORS
330
B1E
102
}
330
B1E
100
AcDbVisualStyle
  2
2dWireframe
 70
     4
 71
     0
 72
     2
 73
     0
 90
        0
 40
-0.6
 41
-30.0
 62
     5
 63
     7
 74
     1
 91
        4
 64
     7
 65
   257
 75
     1
175
     1
 42
1.0
 92
        0
 66
   257
 43
1.0
 76
     1
 77
     6
 78
     2
 67
     7
 79
     5
170
     0
171
     0
290
     0
174
     0
 93
        1
 44
0.0
173
     0
291
     0
 45
0.0
1001
ACAD
1000
AcDbSavedByObjectVersion
1070
     0
  0
VISUALSTYLE
  5
B26
102
{ACAD_REACTORS
330
B1E
102
}
330
B1E
100
AcDbVisualStyle
  2
3D Hidden
 70
     6
 71
     1
 72
     2
 73
     2
 90
        0
 40
-0.6
 41
-30.0
 62
     5
 63
     7
 74
     2
 91
        2
 64
     7
 65
   257
 75
     2
175
     1
 42
40.0
 92
        0
 66
   257
 43
1.0
 76
     1
 77
     6
 78
     2
 67
     7
 79
     3
170
     0
171
     0
290
     0
174
     0
 93
        1
 44
0.0
173
     0
291
     0
 45
0.0
1001
ACAD
1000
AcDbSavedByObjectVersion
1070
     0
  0
VISUALSTYLE
  5
B25
102
{ACAD_REACTORS
330
B1E
102
}
330
B1E
100
AcDbVisualStyle
  2
3dWireframe
 70
     5
 71
     0
 72
     2
 73
     0
 90
        0
 40
-0.6
 41
-30.0
 62
     5
 63
     7
 74
     1
 91
        4
 64
     7
 65
   257
 75
     1
175
     1
 42
1.0
 92
        0
 66
   257
 43
1.0
 76
     1
 77
     6
 78
     2
 67
     7
 79
     5
170
     0
171
     0
290
     0
174
     0
 93
        1
 44
0.0
173
     0
291
     0
 45
0.0
1001
ACAD
1000
AcDbSavedByObjectVersion
1070
     0
  0
VISUALSTYLE
  5
B23
102
{ACAD_REACTORS
330
B1E
102
}
330
B1E
100
AcDbVisualStyle
  2
Basic
 70
     7
 71
     1
 72
     0
 73
     1
 90
        0
 40
-0.6
 41
-30.0
 62
     5
 63
     7
 74
     0
 91
        4
 64
     7
 65
   257
 75
     1
175
     1
 42
1.0
 92
        8
 66
     7
 43
1.0
 76
     1
 77
     6
 78
     2
 67
     7
 79
     5
170
     0
171
     0
290
     0
174
     0
 93
        1
 44
0.0
173
     0
291
     1
 45
0.0
1001
ACAD
1000
AcDbSavedByObjectVersion
1070
     0
  0
VISUALSTYLE
  5
B2A
102
{ACAD_REACTORS
330
B1E
102
}
330
B1E
100
AcDbVisualStyle
  2
Brighten
 70
    12
 71
     2
 72
     2
 73
     0
 90
        0
 40
-0.6
 41
-30.0
 62
     5
 63
     7
 74
     1
 91
        4
 64
     7
 65
   257
 75
     1
175
     1
 42
1.0
 92
        8
 66
     7
 43
1.0
 76
     1
 77
     6
 78
     2
 67
     7
 79
     5
170
     0
171
     0
290
     0
174
     0
 93
        1
 44
50.0
173
     0
291
     1
 45
0.0
1001
ACAD
1000
AcDbSavedByObjectVersion
1070
     0
  0
VISUALSTYLE
  5
B2E
102
{ACAD_REACTORS
330
B1E
102
}
330
B1E
100
AcDbVisualStyle
  2
ColorChange
 70
    16
 71
     2
 72
     2
 73
     3
 90
        0
 40
-0.6
 41
-30.0
 62
     5
 63
     8
 74
     1
 91
        4
 64
     7
 65
   257
 75
     1
175
     1
 42
1.0
 92
        8
 66
     8
 43
1.0
 76
     1
 77
     6
 78
     2
 67
     7
 79
     5
170
     0
171
     0
290
     0
174
     0
 93
        1
 44
0.0
173
     0
291
     1
 45
0.0
1001
ACAD
1000
AcDbSavedByObjectVersion
1070
     0
  0
VISUALSTYLE
  5
B27
102
{ACAD_REACTORS
330
B1E
102
}
330
B1E
100
AcDbVisualStyle
  2
Conceptual
 70
     9
 71
     3
 72
     2
 73
     0
 90
        0
 40
-0.6
 41
-30.0
 62
     5
 63
     7
 74
     2
 91
        2
 64
     7
 65
   257
 75
     1
175
     1
 42
40.0
 92
        8
 66
     7
 43
1.0
 76
     1
 77
     6
 78
     2
 67
     7
 79
     3
170
     0
171
     0
290
     0
174
     0
 93
        1
 44
0.0
173
     0
291
     0
 45
0.0
1001
ACAD
1000
AcDbSavedByObjectVersion
1070
     0
  0
VISUALSTYLE
  5
B29
102
{ACAD_REACTORS
330
B1E
102
}
330
B1E
100
AcDbVisualStyle
  2
Dim
 70
    11
 71
     2
 72
     2
 73
     0
 90
        0
 40
-0.6
 41
-30.0
 62
     5
 63
     7
 74
     1
 91
        4
 64
     7
 65
   257
 75
     1
175
     1
 42
1.0
 92
        8
 66
     7
 43
1.0
 76
     1
 77
     6
 78
     2
 67
     7
 79
     5
170
     0
171
     0
290
     0
174
     0
 93
        1
 44
-50.0
173
     0
291
     1
 45
0.0
1001
ACAD
1000
AcDbSavedByObjectVersion
1070
     0
  0
VISUALSTYLE
  5
B2D
102
{ACAD_REACTORS
330
B1E
102
}
330
B1E
100
AcDbVisualStyle
  2
Facepattern
 70
    15
 71
     2
 72
     2
 73
     0
 90
        0
 40
-0.6
 41
-30.0
 62
     5
 63
     7
 74
     1
 91
        4
 64
     7
 65
   257
 75
     1
175
     1
 42
1.0
 92
        8
 66
     7
 43
1.0
 76
     1
 77
     6
 78
     2
 67
     7
 79
     5
170
     0
171
     0
290
     0
174
     0
 93
        1
 44
0.0
173
     0
291
     1
 45
0.0
1001
ACAD
1000
AcDbSavedByObjectVersion
1070
     0
  0
VISUALSTYLE
  5
B1F
102
{ACAD_REACTORS
330
B1E
102
}
330
B1E
100
AcDbVisualStyle
  2
Flat
 70
     0
 71
     2
 72
     1
 73
     1
 90
        2
 40
-0.6
 41
30.0
 62
     5
 63
     7
 74
     0
 91
        4
 64
     7
 65
   257
 75
     1
175
     1
 42
1.0
 92
        8
 66
     7
 43
1.0
 76
     1
 77
     6
 78
     2
 67
     7
 79
     5
170
     0
171
     0
290
     0
174
     0
 93
       13
 44
0.0
173
     0
291
     1
 45
0.0
1001
ACAD
1000
AcDbSavedByObjectVersion
1070
     0
  0
VISUALSTYLE
  5
B20
102
{ACAD_REACTORS
330
B1E
102
}
330
B1E
100
AcDbVisualStyle
  2
FlatWithEdges
 70
     1
 71
     2
 72
     1
 73
     1
 90
        2
 40
-0.6
 41
30.0
 62
     5
 63
     7
 74
     1
 91
        4
 64
     7
 65
   257
 75
     1
175
     1
 42
1.0
 92
        0
 66
   257
 43
1.0
 76
     1
 77
     6
 78
     2
 67
     7
 79
     5
170
     0
171
     0
290
     0
174
     0
 93
       13
 44
0.0
173
     0
291
     1
 45
0.0
1001
ACAD
1000
AcDbSavedByObjectVersion
1070
     0
  0
VISUALSTYLE
  5
B21
102
{ACAD_REACTORS
330
B1E
102
}
330
B1E
100
AcDbVisualStyle
  2
Gouraud
 70
     2
 71
     2
 72
     2
 73
     1
 90
        2
 40
-0.6
 41
30.0
 62
     5
 63
     7
 74
     0
 91
        4
 64
     7
 65
   257
 75
     1
175
     1
 42
1.0
 92
        0
 66
     7
 43
1.0
 76
     1
 77
     6
 78
     2
 67
     7
 79
     5
170
     0
171
     0
290
     0
174
     0
 93
       13
 44
0.0
173
     0
291
     1
 45
0.0
1001
ACAD
1000
AcDbSavedByObjectVersion
1070
     0
  0
VISUALSTYLE
  5
B22
102
{ACAD_REACTORS
330
B1E
102
}
330
B1E
100
AcDbVisualStyle
  2
GouraudWithEdges
 70
     3
 71
     2
 72
     2
 73
     1
 90
        2
 40
-0.6
 41
30.0
 62
     5
 63
     7
 74
     1
 91
        4
 64
     7
 65
   257
 75
     1
175
     1
 42
1.0
 92
        0
 66
   257
 43
1.0
 76
     1
 77
     6
 78
     2
 67
     7
 79
     5
170
     0
171
     0
290
     0
174
     0
 93
       13
 44
0.0
173
     0
291
     1
 45
0.0
1001
ACAD
1000
AcDbSavedByObjectVersion
1070
     0
  0
VISUALSTYLE
  5
B2C
102
{ACAD_REACTORS
330
B1E
102
}
330
B1E
100
AcDbVisualStyle
  2
Linepattern
 70
    14
 71
     2
 72
     2
 73
     0
 90
        0
 40
-0.6
 41
-30.0
 62
     5
 63
     7
 74
     1
 91
        4
 64
     7
 65
   257
 75
     7
175
     7
 42
1.0
 92
        8
 66
     7
 43
1.0
 76
     1
 77
     6
 78
     2
 67
     7
 79
     5
170
     0
171
     0
290
     0
174
     0
 93
        1
 44
0.0
173
     0
291
     1
 45
0.0
1001
ACAD
1000
AcDbSavedByObjectVersion
1070
     0
  0
VISUALSTYLE
  5
B28
102
{ACAD_REACTORS
330
B1E
102
}
330
B1E
100
AcDbVisualStyle
  2
Realistic
 70
     8
 71
     2
 72
     2
 73
     0
 90
        0
 40
-0.6
 41
-30.0
 62
     5
 63
     7
 74
     1
 91
        0
 64
     7
 65
   257
 75
     1
175
     1
 42
1.0
 92
        8
 66
     8
 43
1.0
 76
     1
 77
     6
 78
     2
 67
     7
 79
     5
170
     0
171
     0
290
     0
174
     0
 93
       13
 44
0.0
173
     0
291
     0
 45
0.0
1001
ACAD
1000
AcDbSavedByObjectVersion
1070
     0
  0
VISUALSTYLE
  5
B2B
102
{ACAD_REACTORS
330
B1E
102
}
330
B1E
100
AcDbVisualStyle
  2
Thicken
 70
    13
 71
     2
 72
     2
 73
     0
 90
        0
 40
-0.6
 41
-30.0
 62
     5
 63
     7
 74
     1
 91
        4
 64
     7
 65
   257
 75
     1
175
     1
 42
1.0
 92
       12
 66
     7
 43
1.0
 76
     1
 77
     6
 78
     2
 67
     7
 79
     5
170
     0
171
     0
290
     0
174
     0
 93
        1
 44
0.0
173
     0
291
     1
 45
0.0
1001
ACAD
1000
AcDbSavedByObjectVersion
1070
     0
  0
DICTIONARYVAR
  5
D73
102
{ACAD_REACTORS
330
B01
102
}
330
B01
100
DictionaryVariables
280
     0
  1
1:1
  0
DICTIONARYVAR
  5
D72
102
{ACAD_REACTORS
330
B01
102
}
330
B01
100
DictionaryVariables
280
     0
  1
STANDARD
  0
DICTIONARYVAR
  5
D71
102
{ACAD_REACTORS
330
B01
102
}
330
B01
100
DictionaryVariables
280
     0
  1
STANDARD
  0
DICTIONARYVAR
  5
B02
102
{ACAD_REACTORS
330
B01
102
}
330
B01
100
DictionaryVariables
280
     0
  1
1
  0
DICTIONARYVAR
  5
D75
102
{ACAD_REACTORS
330
B01
102
}
330
B01
100
DictionaryVariables
280
     0
  1
0
  0
DICTIONARYVAR
  5
D74
102
{ACAD_REACTORS
330
B01
102
}
330
B01
100
DictionaryVariables
280
     0
  1
127
  0
DICTIONARY
  5
D7B
330
22
100
AcDbDictionary
280
     1
281
     1
  3
ACAD_XREC_ROUNDTRIP
360
D7C
  0
DICTIONARY
  5
C5F
330
C3B
100
AcDbDictionary
280
     1
281
     1
  3
ACAD_XREC_ROUNDTRIP
360
D83
  3
ADSK_XREC_LAYOUTTHUMBNAIL
360
C60
  0
DICTIONARY
  5
B0F
330
B0E
100
AcDbDictionary
280
     1
281
     1
  3
ACAD_XREC_ROUNDTRIP
360
D7E
  3
BUMPTILE
360
B11
  3
DIFFUSETILE
360
B10
  3
OPACITYTILE
360
B14
  3
REFLECTIONTILE
360
B13
  3
REFRACTIONTILE
360
B15
  3
SPECULARTILE
360
B12
  0
DICTIONARY
  5
B07
330
B06
100
AcDbDictionary
280
     1
281
     1
  3
ACAD_XREC_ROUNDTRIP
360
D7D
  3
BUMPTILE
360
B09
  3
DIFFUSETILE
360
B08
  3
OPACITYTILE
360
B0C
  3
REFLECTIONTILE
360
B0B
  3
REFRACTIONTILE
360
B0D
  3
SPECULARTILE
360
B0A
  0
DICTIONARY
  5
B17
330
B16
100
AcDbDictionary
280
     1
281
     1
  3
ACAD_XREC_ROUNDTRIP
360
D7F
  3
BUMPTILE
360
B19
  3
DIFFUSETILE
360
B18
  3
OPACITYTILE
360
B1C
  3
REFLECTIONTILE
360
B1B
  3
REFRACTIONTILE
360
B1D
  3
SPECULARTILE
360
B1A
  0
DICTIONARY
  5
D77
330
B31
100
AcDbDictionary
280
     1
281
     1
  3
ACAD_ROUNDTRIP_2008_TABLESTYLE_CELLSTYLEMAP
360
D78
  3
ACAD_XREC_ROUNDTRIP
360
D80
  0
XRECORD
  5
D7C
102
{ACAD_REACTORS
330
D7B
102
}
330
D7B
100
AcDbXrecord
280
     1
102
SHADEPLOT
 70
     0
102
SHADEPLOTRESLEVEL
 70
     2
102
SHADEPLOTCUSTOMDPI
 70
   300
  0
XRECORD
  5
D83
102
{ACAD_REACTORS
330
C5F
102
}
330
C5F
100
AcDbXrecord
280
     1
102
SHADEPLOT
 70
     0
102
SHADEPLOTRESLEVEL
 70
     2
102
SHADEPLOTCUSTOMDPI
 70
   300
  0
XRECORD
  5
C60
102
{ACAD_REACTORS
330
C5F
102
}
330
C5F
100
AcDbXrecord
280
     1
310
28000000630000008C0000000100080000000000B036000000000000000000000001000000000000FFFFFF0000000000FFFFFF000000000000000000000000000000000000000000000000000000000000000000330000006600000099000000CC000000FF00000000330000333300006633000099330000CC330000FF3300
310
0000660000336600006666000099660000CC660000FF66000000990000339900006699000099990000CC990000FF99000000CC000033CC000066CC000099CC0000CCCC0000FFCC000000FF000033FF000066FF000099FF0000CCFF0000FFFF000000003300330033006600330099003300CC003300FF003300003333003333
310
33006633330099333300CC333300FF33330000663300336633006666330099663300CC663300FF66330000993300339933006699330099993300CC993300FF99330000CC330033CC330066CC330099CC3300CCCC3300FFCC330000FF330033FF330066FF330099FF3300CCFF3300FFFF330000006600330066006600660099
310
006600CC006600FF00660000336600333366006633660099336600CC336600FF33660000666600336666006666660099666600CC666600FF66660000996600339966006699660099996600CC996600FF99660000CC660033CC660066CC660099CC6600CCCC6600FFCC660000FF660033FF660066FF660099FF6600CCFF6600
310
FFFF660000009900330099006600990099009900CC009900FF00990000339900333399006633990099339900CC339900FF33990000669900336699006666990099669900CC669900FF66990000999900339999006699990099999900CC999900FF99990000CC990033CC990066CC990099CC9900CCCC9900FFCC990000FF99
310
0033FF990066FF990099FF9900CCFF9900FFFF99000000CC003300CC006600CC009900CC00CC00CC00FF00CC000033CC003333CC006633CC009933CC00CC33CC00FF33CC000066CC003366CC006666CC009966CC00CC66CC00FF66CC000099CC003399CC006699CC009999CC00CC99CC00FF99CC0000CCCC0033CCCC0066CC
310
CC0099CCCC00CCCCCC00FFCCCC0000FFCC0033FFCC0066FFCC0099FFCC00CCFFCC00FFFFCC000000FF003300FF006600FF009900FF00CC00FF00FF00FF000033FF003333FF006633FF009933FF00CC33FF00FF33FF000066FF003366FF006666FF009966FF00CC66FF00FF66FF000099FF003399FF006699FF009999FF00CC
310
99FF00FF99FF0000CCFF0033CCFF0066CCFF0099CCFF00CCCCFF00FFCCFF0000FFFF0033FFFF0066FFFF0099FFFF00CCFFFF00FFFFFF00000000000D0D0D001A1A1A00282828003535350043434300505050005D5D5D006B6B6B00787878008686860093939300A1A1A100AEAEAE00BBBBBB00C9C9C900D6D6D600E4E4E400
310
F1F1F100FFFFFF0000000000000000000000000000000000000000000000000000000000000000000000000000000000E2E2E2E2E2E2E2E2E2E2E2E2E2E2E2E2E2E2E2E2E2E2E2E2E2E2E2E2E2E2E2E2E2E2E2E2E2E2E2E2E2E2E2E2E2E2E2E2E2E2E2E2E2E2E2E2E2E2E2E2E2E2E2E2E2E2E2E2E2E2E2E2E2E2E2E2E2E2E2
310
E2E2E2E2E2E2E2E2E2E2E2E2E2E2E2E2E2E2E2E201E2F5F5F5F5F5F5F5F5F5F5F5F5F5F5F5F5F5F5F5F5F5F5F5F5F5F5F5F5F5F5F5F5F5F5F5F5F5F5F5F5F5F5F5F5F5F5F5F5F5F5F5F5F5F5F5F5F5F5F5F5F5F5F5F5F5F5F5F5F5F5F5F5F5F5F5F5F5F5F5F5F5F5F5F5F5F5F5F5F5F5F5F5F5F5F5F5E2E202E2E2E2E2E2E2
310
E2E2E2F5F5F5F5F5F5F5F5F5E2E2E2E2E2E2E2E2E2E2E2E2E2E2E2F5F5F5F5F5F5F5F5E2E2E2E2E2E2E2E2E2E2E2E2E2E2E2E2F5F5F5F5F5F5F5F5E2E2E2E2E2E2E2E2E2E2E2E2E2E2E2F5F5F5F5F5F5F5F5F5E2E2E2E2E2E2E2E2E2E202E2E2F5F5F5F5F5F5F5F5F5F5F5F5F5F5F5F5F5F5F5F5F5F5F5F5F5F5F5F5F5F5F5
310
F5F5F5F5F5F5F5F5F5F5F5F5F5F5F5F5F5F5F5F5F5F5F5F5F5F5F5F5F5F5F5F5F5F5F5F5F5F5F5F5F5F5F5F5F5F5F5F5F5F5F5F5F5F5F5F5F5F5F5F5F5F5F5E2E2E203E2E2F5F5F5F5F5F5F5F5F5F5F5F5F5F5F5F5F5F5F5F5F5F5F5F5F5F5F5F5F5F5F5F5F5F5F5F5F5F5F5F5F5F5F5F5F5F5F5F5F5F5F5F5F5F5F5F5F5F5
310
F5F5F5F5F5F5F5F5F5F5F5F5F5F5F5F5F5F5F5F5F5F5F5F5F5F5F5F5F5F5F5F5F5F5F5F5E2E2E202E2E2F5F5DCDCDCDCDCDCDCDCDCDCDCDCDCDCDCDCDCDCDCDCDCDCDCDCDCDCDCDCDCDCDCDCDCDCDCDCDCDCDCDCDCDCDCDCDCDCDCDCDCDCDCDCDCDCDCDCDCDCDCDCDCDCDCDCDCDCDCDCDCDCDCDCDCDCDCDCDCDCDCDCDCDCDC
310
DCDCDCDCDCDCDCDCF5E2E2E20AE2E2F5F5DCF5F5F5F5F5F5F5F5F5F5F5F5F5F5F5F5F5F5F5F5F5F5F5F5F5F5F5F5F5F5F5F5F5F5F5F5F5F5F5F5F5F5F5F5F5F5F5F5F5F5F5F5F5F5F5F5F5F5F5F5F5F5F5F5F5F5F5F5F5F5F5F5F5F5F5F5F5F5F5F5F5F5F5F5F5F5F5F5F5DCF5E2E2E208E2E2F5F5DCF5F5F5F5F5F5F5F5F5
310
F5F5F5F5F5F5F5F5F5F5F5F5F5F5F5F5F5F5F5F5F5F5F5F5F5F5F5F5F5F5F5F5F5F5F5F5F5F5F5F5F5F5F5F5F5F5F5F5F5F5F5F5F5F5F5F5F5F5F5F5F5F5F5F5F5F5F5F5F5F5F5F5F5F5F5F5F5F5F5F5DCF5E2E2E201E2E2F5F5DCF5F5F5F5F5F5F5F5F5F5F5F5F5F5F5F5F5F5F5F5F5F5F5F5F5F5F5F5F5F5F5F5F5F5F5F5
310
F5F5F5F5F5F5F5F5F5F5F5F5F5F5F5F5F5F5F5F5F5F5F5F5F5F5F5F5F5F5F5F5F5F5F5F5F5F5F5F5F5F5F5F5F5F5F5F5F5F5F5F5F5DCF5E2E2E200E2E2F5F5DCF5F5F5F5F5F5F5F5F5F5F5F5F5F5F5F5F5F5F5F5F5F5F5F5F5F5F5F5F5F5F5F5F5F5F5F5F5F5F5F5F5F5F5F5F5F5F5F5F5F5F5F5F5F5F5F5F5F5F5F5F5F5F5
310
F5F5F5F5F5F5F5F5F5F5F5F5F5F5F5F5F5F5F5F5F5F5F5F5F5F5DCF5E2E2E22AE2E2F5F5DCF5F5F5F5F5F5F5F5F5F5F5F5F5F5F5F5F5F5F5F5F5F5F5F5F5F5F5F5F5F5F5F5F5F5F5F5F5F5F5F5F5F5F5F5F5F5F5F5F5F5F5F5F5F5F5F5F5F5F5F5F5F5F5F5F5F5F5F5F5F5F5F5F5F5F5F5F5F5F5F5F5F5F5F5F5F5F5F5F5DC
310
F5E2E2E201E2F5F5F5DCF5F5F5F5F5F5F5F5F5F5F5F5F5F5F5F5F5F5F5F5F5F5F5F5F5F5F5F5F5F5F5F5F5F5F5F5F5F5F5F5F5F5F5F5F5F5F5F5F5F5F5F5F5F5F5F5F5F5F5F5F5F5F5F5F5F5F5F5F5F5F5F5F5F5F5F5F5F5F5F5F5F5F5F5F5F5F5F5F5DCF5F5E2E2FDE2F5F5F5DCF5F5F5F5F5F5F5F5F5F5F5F5F5F5F5F5F5
310
F5F5F5F5F5F5F5F5F5F5F5F5F5F5F5F5F5F5F5F5F5F5F5F5F5F5F5F5F5F5F5F5F5F5F5F5F5F5F5F5F5F5F5F5F5F5F5F5F5F5F5F5F5F5F5F5F5F5F5F5F5F5F5F5F5F5F5F5F5F5F5F5DCF5F5E2E202E2F5F5F5DCF5F5F5F5F5F5F5F5F5F5F5F5F5F5F5F5F5F5F5F5F5F5F5F5F5F5F5F5F5F5F5F5F5F5F5F5F5F5F5F5F5F5F5F5
310
F5F5F5F5F5F5F5F5F5F5F5F5F5F5F5F5F5F5F5F5F5F5F5F5F5F5F5F5F5F5F5F5F5F5F5F5F5F5F5F5F5F5F5F5F5DCF5F5E2E2F1E2F5F5F5DCF5F5F5F5F5F5F5F5F5F5F5F5F5F5F5F5F5F5F5F5F5F5F5F5F5F5F5F5F5F5F5F5F5F5F5F5F5F5F5F5F5F5F5F5F5F5F5F5F5F5F5F5F5F5F5F5F5F5F5F5F5F5F5F5F5F5F5F5F5F5F5
310
F5F5F5F5F5F5F5F5F5F5F5F5F5F5F5F5F5F5DCF5F5E2E2F3E2F5F5F5DCF5F5F5F5F5F5F5F5F5F5F5F5F5F5F5F5F5F5F5F5F5F5F5F5F5F5F5F5F5F5F5F5F5F5F5F5F5F5F5F5F5F5F5F5F5F5F5F5F5F5F5F5F5F5F5F5F5F5F5F5F5F5F5F5F5F5F5F5F5F5F5F5F5F5F5F5F5F5F5F5F5F5F5F5F5F5F5F5F5DCF5F5E2E201E2F5F5
310
F5DCF5F5F5F5F5F5F5F5F5F5F5F5F5F5F5F5F5F5F5F5F5F5F5F5F5F5F5F5F5F5F5F5F5F5F5F5F5F5F5F5F52DF5F5F5F5F5F5F5F5F5F5F5F5F5F5F5F5F5F5F5F5F5F5F5F5F5F5F5F5F5F5F5F5F5F5F5F5F5F5F5F5F5F5F5F5F5F5F5DCF5F5E2E202E2F5F5F5DCF5F5F5F5F5F5F5F5F5F5F5F5F5F5F5F5F5F5F5F5F5F5F5F5F5
310
F5F5F5F5F5F5F5F5F5F5F5F5F5F5F5F52DF5F5F5F5F5F5F5F5F5F5F5F5F5F5F5F5F5F5F5F5F5F5F5F5F5F5F5F5F5F5F5F5F5F5F5F5F5F5F5F5F5F5F5F5F5F5F5DCF5F5E2E20EE2F5F5F5DCF5F5F5F5F5F5F5F5F5F5F5F5F5F5BEBEBEBEBEBEBEBEBEBEBEBEBEBEBEBEBEBEBEBEBEBEBEBEBEBEBEBE2D2D2DF5F5F5F5F5F5F5
310
F5F5F5F5F5F5F5F5F5F5F5F5F5F5F5F5F5F5F5F5F5F5F5F5F5F5F5F5F5F5F5F5F5F5F5F5F5DCF5F5E2E204E2F5F5F5DCF5F5F5F5F5F5F5F5F5F5F5F5F5F5F5BEF5F5F5F5F5F5F5F5F5F5F5F5F5F5F5F5F5F5F5F5F5F52D2D2D2D2D2D2DF5F5F5F5F5F5F5F5F5F5F5F5F5F5F5F5F5F5F5F5F5F5F5F5F5F5F5F5F5F5F5F5F5F5
310
F5F5F5F5F5F5F5F5F5F5DCF5F5E2E201E2F5F5F5DCF5F5F5F5F5F5F5F5F5F5F5F5F5F5F5BEF5F5F5F5F5F5BEF5F5F5F5F5F5F5F5F5F5F5F5BEF5F52DF5F52DF5F52DF5F5F5F5F5F5F5F5F5F5F5F5F5F5F5F5F5F5F5F5F5F5F5F5F5F5F5F5F5F5F5F5F5F5F5F5F5F5F5F5F5F5F5F5DCF5F5E2E203E2E2F5F5DCF5F5F5F5F5F5
310
F5F5F5F5F5F5F5BEBEBEF5F5F5F5F5F5BEBEBEBEBEBEBEBEBEBEBEBEBEBEF5F52DF5F52DF5F52DF5F5F5F5F5F5F5F5F5F5F5F5F5F5F5F5F5F5F5F5F5F5F5F5F5F5F5F5F5F5F5F5F5F5F5F5F5F5F5F5F5F5F5F5DCF5E2E2E202E2E2F5F5DCF5F5F5F5F5F5F5F5F5F5F5F5F5BEBEBEF5F5F5F5F5F5BEF5F5F5F5BEBEBEBEF5F5
310
F5F5BEF5F52DF5F52DF5F52DF5F5F5F5F5F5F5F5F5F5F5F5F5F5F5F5F5F5F5F5F5F5F5F5F5F5F5F5F5F5F5F5F5F5F5F5F5F5F5F5F5F5F5F5DCF5E2E2E201E2E2F5F5DCF5F5F5F5F5F5F5F5F5F5F5F5F5BEBEBEF5F5F5F5F5F5BEF5F5F5F5BEBEBEBEF5F5F5F5BEF5F52DF5F52DF5F52DF5F5F5F5F5F5F5F5F5F5F5F5F5F5F5
310
F5F5F5F5F5F5F5F5F5F5F5F5F5F5F5F5F5F5F5F5F5F5F5F5F5F5F5F5F5DCF5E2E2E20EE2E2F5F5DCF5F5F5F5F5F5F5F5F5F5F5F5F5BEBEBEF5F5F5F5F5F5BEF5F5F5F5BEBEBEBEF5F5F5F5BEF5F52DF5F52DF5F52DF5F5F5F5F5F5F5F5F5F5F5F5F5F5F5F5F5F5F5F5F5F5F5F5F5F5F5F5F5F5F5F5F5F5F5F5F5F5F5F5F5F5
310
F5F5DCF5E2E2E208E2E2F5F5DCF5F5F5F5F5F5F5F5F5F5F5F5F5F5F5BEF5F5F5F5F5F5BEF5F5F5F5BEBEBEBEF5F5F5F5BEF5F52D2DF52DF52D2DF5F5F5F5F5F5F5F5F5F5F5F5F5F5F5F5F5F5F5F5F5F5F5F5F5F5F5F5F5F5F5F5F5F5F5F5F5F5F5F5F5F5F5F5DCF5E2E2E201E2E2F5F5DCF5F5F5F5F5F5F5F5F5F5F5F5F5F5
310
F5BEF5F5F5F5F5F5BEF5F5F5F5F5F5F5F5F5F5F5F5BEF5F52D2D2D2D2D2D2DF5F5F5F5F5F5F5F5F5F5F5F5F5F5F5F5F5F5F5F5F5F5F5F5F5F5F5F5F5F5F5F5F5F5F5F5F5F5F5F5F5F5F5F5DCF5E2E2E2A0E2E2F5F5DCF5F5F5F5F5F5F5F5F5F5F5F5F5F5BEBEBEBEBEBEBEBEBE0F0F0F0F0F0F0F0F0F0F0F0FBEF5F52DF5F5
310
2DF5F52DF5F50F0F0F0F0F0F0F0F0F0F0F0F0F0FF5F5F5F5F5F5F5F5F5F5F5F5F5F5F5F5F5F5F5F5F5F5F5F5F5F5F5F5DCF5E2E2E202E2E2F5F5DCF5F5F5F5F5F5F5F5F5F5F5F5F5F5F5BEF5F5F5F5F5F50FF5F5F5F5F5F5F5F5F5F5F5F50FF5F52DF5F52DF5F52DF5F50FF5F5F5F5F5F5F5F5F5F5F5F50FF5F5F5F5F5F5F5
310
F5F5F5F5F5F5F5F5F5F5F5F5F5F5F5F5F5F5F5F5F5DCF5E2E2E208E2E2F5F5DCF5F5F5F5F5F5F5F5F5F5F5F5F5F5BEBEF5F5F5F5F5F50FF5F5F5F5F5F5F5F5F5F5F5F50F0FF52DF5F52DF5F52DF50F0FF5F5F5F5F5F5F5F5F5F5F5F50FF5F5F5F5F5F5F5F5F5F5F5F5F5F5F5F5F5F5F5F5F5F5F5F5F5F5F5F5DCF5E2E2E202
310
E2E2F5F5DCF5F5F5F5F5F5F5F5F5F5F5F5F5BEBEBEF5F5F5F5F5F50FF5F5F5F5F5F5F5F5F5F5F5F50F0F0F2DF5F52DF5F52D0F0F0FF5F5F5F5F5F5F5F5F5F5F5F50FF5F5F5F5F5F5F5F5F5F5F5F5F5F5F5F5F5F5F5F5F5F5F5F5F5F5F5F5DCF5E2E2E23AE2E2F5F5DCF5F5F5F5F5F5F5F5F5F5F5F5F5BEBEBEF5F5F5F5F5F5
310
0FF5F5F5F5F5F5F5F5F5F5F5F50F0F0F0F0F0F2D0F0F0F0F0F0FF5F5F5F5F5F5F5F5F5F5F5F50F0FECECECECECECF5F5F5F5F5F5F5F5F5F5F5F5F5F5F5F5F5F5F5F5F5DCF5E2E2E2D4E2E2F5F5DCF5F5F5F5F5F5F5F5F5F5F5F5F5F5F5BEF5F5F5F5F50F0FF5F5F5F5F5F5F5F5F5F5F5F50FF5F5F5F5F52D0F0F0F0F0F0F0F
310
0F0F0F0F0F0F0F0F0F0F0F0F0FECF5F5F5F5ECF5F5F5F5F5F5F5F5F5F5F5F5F5F5F5F5F5F5F5F5F5DCF5E2E2E202E2E2F5F5DCF5F5F5F5F5F5F5F5F5F5F5F5F5F5BEBEBEBEBEBEBEBE0F0F0F0F0F0F0F0F0F0F0F0F0F0F0F0F0F0F0F2DF5F5F5F5F5F5F5F5F5F5F5F5F5F5F5F5F5F50F0FECF5F5F5F5ECF5F5F5F5F5F5F5F5
310
F5F5F5F5F5F5F5F5F5F5F5F5F5DCF5E2E2E200E2E2F5F5DCF5F5F5F5F5F5F5F5F5F5F5F5F5F5F5BEF5F5F5F5F50F0F0F0F0F0F0F0F0F0F0F0F0F0F0F0F0F0F0F0F0FF50FF5F5F5F5F5F5F5F5F5F5F5F5F5F5F5F50F2D2DF5F5F5F5ECF5F5F5F5F5F5F5F5F5F5F5F5F5F5F5F5F5F5F5F5F5DCF5E2E2E202E2E2F5F5DCF5F5F5
310
F5F5F5F5F5F5F5F5F5F5F5F5BEF5F5F5F5F50FF50F0F0F0F0F0F0F0F0F0F0F0FF50FF50FF50F2DF5F5F5F5F5F5F5F5F5F5F5F5F50F0FF5F5F50F0FECF5F5F5F5ECF5F5F5F5F5F5F5F5F5F5F5F5F5F5F5F5F5F5F5F5F5DCF5E2E2E202E2E2F5F5DCF5F5F5F5F5F5F5F5F5F5F5F5F5F5F5BEF5F5F5F5F50FF5F50FF5F5F5F5F5
310
F5F5F5F50F0F0FF50F0F0F0FF5F5F5F5F5F5F5F5F5F5F5F5F50FF5F5F5F50F0FECF5F5F5F5ECF5F5F5F5F5F5F5F5F5F5F5F5F5F5F5F5F5F5F5F5F5DCF5E2E2E203E2E2F5F5DCF5F5F5F5F5F5F5F5F5F5F5F5F5F5F5BEF5F5F5F5F50FF5F50FF5F5F5F5F5F5F5F5F5F5F50F0F0FF5F52DF5F5F5F5F5F5F5F5F5F5F5F5F5F5F5
310
F5F5F5F50FECF5F5F5F5ECF5F5F5F5F5F5F5F5F5F5F5F5F5F5F5F5F5F5F5F5F5DCF5E2E2E205E2F5F5F5DCF5F5F5F5F5F5F5F5F5F5F5F5F5F5F5BEF5F5F5F5F50F0FF5F50FF5F5F5F5F5F5F5F5F5F50FF5F5F5F52D0F0F0F0F0F0F0F0F0F0F0F0F0F0F0F0F0F0F0F0FECF5F5F5F5ECF5F5F5F5F5F5F5F5F5F5F5F5F5F5F5F5
310
F5F5F5F5F5DCF5F5E2E208E2F5F5F5DCF5F5F5F5F5F5F5F5F5F5F5F5F5F5F5BEF5F5F5F50F0F0FF5F50FF5F5F5F5F5F5F5F5F5F5F50FF5F5F52DF5F5F5F5F5F5F5F5F5F5F5F5F5F5F5F5F5F50F0FECF5F5F5F5ECF5F5F5F5F5F5F5F5F5F5F5F5F5F5F5F5F5F5F5F5F5DCF5F5E2E23CE2F5F5F5DCF5F5F5F5F5F5F5F5F5F5F5
310
F5F5F5F5BEF5F5F5F50FF50FF5F5F50FF5F5F5F5F5F5F5F5F5F5F50FF5F52DF5F5F5F5F5F5F5F5F5F5F5F5F5F5F5F5F50FF50FECF5F5F5F5ECF5F5F5F5F5F5F5F5F5F5F5F5F5F5F5F5F5F5F5F5F5DCF5F5E2E21CE2F5F5F5DCF5F5F5F5F5F5F5F5F5F5F5F5F5F5F5BEF5F5F5F5F50FF50FF5F50FF5F5F5F5F5F5F5F5F5F5F5
310
0FF5F52DF5F5F5F5F5F5F5F5F5F5F5F5F5F5F5F5F50F0F0FECECECBEECECF5F5F5F5F5F5F5F5F5F5F5F5F5F5F5F5F5F5F5F5F5DCF5F5E2E202E2F5F5F5DCF5F5F5F5F5F5F5F5F5F5F5F5F5F5F5BEF5F5F5F5F50F0F0FF5F5F50FF5F5F5F5F5F5F5F5F5F5F50FF52DF5F5F5F5F5F5F5F5F5F5F5F5F5F5F5F50F0F0FF5F5F5F5
310
F5BEF5F5F5F5F5F5F5F5F5F5F5F5F5F5F5F5F5F5F5F5F5F5DCF5F5E2E208E2F5F5F5DCF5F5F5F5F5F5F5F5F5F5F5F5F5F5F5BEF5F5F5F5F5F50FF50FF5F50FF5F5F5F5F5F5F5F5F5F5F5F50F2DF5F5F5F5F5F5F5F5F5F5F5F5F5F5F5F50F0FF5F5F5F5F5F5BEF5F5F5F5F5F5F5F5F5F5F5F5F5F5F5F5F5F5F5F5F5F5DCF5F5
310
E2E200E2F5F5F5DCF5F5F5F5F5F5F5F5F5F5F5F5F5F5F5BEF5F5F5F5F5F50FF50FF5F5F50FF5F5F5F5F5F5F5F5F5F5F50F2DF5F5F5F5F5F5F5F5F5F5F5F5F5F5F50FF50FF5F5F5F5F5F5F5BEF5F5F5F5F5F5F5F5F5F5F5F5F5F5F5F5F5F5F5F5F5DCF5F5E2E2FCE2F5F5F5DCF5F5F5F5F5F5F5F5F5F5F5F5F5F5F5BEF5F5F5
310
F5F5F5F50FF50FF5F50FF5F5F5F5F5F5F5F5F5F5F5F52DF5F5F5F5F5F5F5F5F5F5F5F5F5F5F50F0FF5F5F5F5F5F5F5F5BEBEBEBEF5F5F5F5F5F5F5F5F5F5F5F5F5F5F5F5F5F5DCF5F5E2E208E2F5F5F5DCF5F5F5F5F5F5F5F5F5F5F5F5F5F5F5BEF5F5F5F5F5F5F50FF50FF5F5F50FF5F5F5F5F5F5F5F5F5F5F52DF5F5F5F5
310
F5F5F5F5F5F5F5F5F5F5F50F0FF5F5F5F5F5F5F5F5F5F5F5F5F5F5F5F5F5F5F5F5F5F5F5F5F5F5F5F5F5F5DCF5F5E2E202E2F5F5F5DCF5F5F5F5F5F5F5F5F5F5F5F5F5BEBEBEF5F5F5F5F5F5F5F50FF50FF5F5F50FF5F5F5F5F5F5F5F5F5F5F5F5F5F5F5F5F5F5F5F5F5F5F5F5F50FF50FF5F5F5F5F5F5F5F5F5F5F5F5F5F5
310
F5F5F5F5F5F5F5F5F5F5F5F5F5F5F5F5DCF5F5E2E201E2E2F5F5DCF5F5F5F5F5F5F5F5F5F5F5F5F5BEBEBEF5F5F5F5F5F5F5F50FF50FF5F5F50FF5F5F5F5F5F5F5F5F5F52DF5F5F5F5F5F5F5F5F5F5F5F5F5F50F0FF5F5F5F5F5F5F5F5F5F5F5F5F5F5F5F5F5F5F5F5F5F5F5F5F5F5F5F5F5F5F5DCF5E2E2E202E2E2F5F5DC
310
F5F5F5F5F5F5F5F5F5F5F5F5F5BEBEBEF5F5F5F5F5F5F5F5F50F0FF5F5F5F50FF5F5F5F5F5F5F5F5F52DF5F5F5F5F5F5F5F5F5F5F5F5F50FF50FF5F5F5F5F5F5F5F5F5F5F5F5F5F5F5F5F5F5F5F5F5F5F5F5F5F5F5F5F5F5F5DCF5E2E2E201E2E2F5F5DCF5F5F5F5F5F5F5F5F5F5F5F5F5F5BEBEF5F5F5F5F5F5F5F5F50FF5
310
0FF5F5F50FF5F5F5F5F5F5F5F5F52DF5F5F5F5F5F5F5F5F5F5F5F5F50F0FF5F5F5F5F5F5F5F5F5F5F5F5F5F5F5F5F5F5F5F5F5F5F5F5F5F5F5F5F5F5F5F5DCF5E2E2E201E2E2F5F5DCF5F5F5F5F5F5F5F5F5F5F5F5F5F5F5BEF5F5F5F5F5F5F5F5F5F50F0FF5F5F5F50FF5F5F5F5F5F5F5F5F5F5F5F5F5F5F5F5F5F5F5F5F5
310
0FF50FF5F5F5F5F5F5F5F5F5F5F5F5F5F5F5F5F5F5F5F5F5F5F5F5F5F5F5F5F5F5F5F5DCF5E2E2E202E2E2F5F5DCF5F5F5F5F5F5F5F5F5F5F5F5F5F5F5BEF5F5F5F5F5F5F5F5F5F50FF50FF5F5F50FF5F5F5F5F5F5F5F52DF5F5F5F5F5F5F5F5F5F5F5F50F0FF5F5F5F5F5F5F5F5F5F5F5F5F5F5F5F5F5F5F5F5F5F5F5F5F5
310
F5F5F5F5F5F5F5F5DCF5E2E2E2C0E2E2F5F5DCF5F5F5F5F5F5F5F5F5F5F5F5F5F5F5BEF5F5F5F5F5F5F5F5F5F5F50F0FF5F5F5F50FF5F5F5F5F5F5F52DF5F5F5F5F5F5F5F5F5F5F50FF50FF5F5F5F5F5F5F5F5F5F5F5F5F5F5F5F5F5F5F5F5F5F5F5F5F5F5F5F5F5F5F5F5F5DCF5E2E2E20EE2E2F5F5DCF5F5F5F5F5F5F5F5
310
F5F5F5F5F5F5F5BEF5F5F5F5F5F5F5F5F5F5F50FF50FF5F5F50FF5F5F5F5F5F5F52DF5F5F5F5F5F5F5F5F5F5F50FF50FF5F5F5F5F5F5F5F5F5F5F5F5F5F5F5F5F5F5F5F5F5F5F5F5F5F5F5F5F5F5F5F5F5DCF5E2E2E2FDE2E2F5F5DCF5F5F5F5F5F5F5F5F5F5F5F5F5F5F5BEF5F5F5F5F5F5F5F5F5F5F5F50F0FF5F5F5F50F
310
0F0F0F0F0F0F2DF5F5F5F5F5F5F5F5F5F5F50F0FF5F5F5F5F5F5F5F5F5F5F5F5F5F5F5F5F5F5F5F5F5F5F5F5F5F5F5F5F5F5F5F5F5F5DCF5E2E2E22AE2E2F5F5DCF5F5F5F5F5F5F5F5F5F5F5F5F5F5F5BEF5F5F5F5F5F5F5F5F5F5F5F50F0F0FF5F5F50FF5F5F5F5F5F52DF5F5F5F5F5F5F5F5F5F50F0F0FF5F5F5F5F5F5F5
310
F5F5F5F5F5F5F5F5F5F5F5F5F5F5F5F5F5F5F5F5F5F5F5F5F5F5F5DCF5E2E2E20EE2E2F5F5DCF5F5F5F5F5F5F5F5F5F5F5F5F5F5F5BEF5F5F5F5F5F5F5F5F5F5F5F5F50F0FF5F5F50FF5F5F5F5F5F52DF5F5F5F5F5F5F5F5F5F50F0FF5F5F5F5F5F5F5F5F5F5F5F5F5F5F5F5F5F5F5F5F5F5F5F5F5F5F5F5F5F5F5F5F5F5F5
310
DCF5E2E2E270E2E2F5F5DCF5F5F5F5F5F5F5F5F5F5F5F5F5F5F5BEF5F5F5F5F5F5F5F5F5F5F5F5F50FF50FF5F50FF5F5F5F5F5F52DF5F5F5F5F5F5F5F5F50FF50FF5F5F5F5F5F5F5F5F5F5F5F5F5F5F5F5F5F5F5F5F5F5F5F5F5F5F5F5F5F5F5F5F5F5F5DCF5E2E2E2FDE2E2F5F5DCF5F5F5F5F5F5F5F5F5F5F5F5F5F5F5BE
310
F5F5F5F5F5F5F5F5F5F5F5F5F5F50F0FF5F50FEC0F0F0F0F0F2DF5F5F5F5F5F5F5F5F50F0FF5F5F5F5F5F5F5F5F5F5F5F5F5F5F5F5F5F5F5F5F5F5F5F5F5F5F5F5F5F5F5F5F5F5F5F5DCF5E2E2E2F6E2E2F5F5DCF5F5F5F5F5F5F5F5F5F5F5F5F5F5F5BEF5F5F5F5F5F5F5F5F5F5F5F5F5F50FF50F0F0FEC0F0F0F0F0F2DF5
310
F5F5F5F5F5F5F50FF50FF5F5F5F5F5F5F5F5F5F5F5F5F5F5F5F5F5F5F5F5F5F5F5F5F5F5F5F5F5F5F5F5F5F5F5F5DCF5E2E2E22BE2E2F5F5DCF5F5F5F5F5F5F5F5F5F5F5F5F5F5F5BEF5F5F5F5F5F5F5F5F5F5F5F5F5F5F50F0F0F0FECF5F5F5F5F52D0F0F0F0F0F0F0F0F0F0FF5F5F5F5F5F5F5F5F5F5F5F5F5F5F5F5F5F5
310
F5F5F5F5F5F5F5F5F5F5F5F5F5F5F5F5F5F5F5DCF5E2E2E201E2E2F5F5DCF5F5F5F5F5F5F5F5F5F5F5F5F5F5F5BEF5F5F5F5F5F5F5F5F5F5F5F5F5F5F5F5F5F50FECF5F5F5F5F52DF5F5F5F5F5F50FF5F5F5F5F5F5F5F5F5F5F5F5F5F5F5F5F5F5F5F5F5F5F5F5F5F5F5F5F5F5F5F5F5F5F5F5F5F5F5F5DCF5E2E2E2A8E2E2
310
F5F5DCF5F5F5F5F5F5F5F5F5F5F5F5F5F5BEBEBEBEBEBEBEBEBEBEBEBEBEBEBEBEBEBEBEBEBEECBEBEBEBEBEBE0F0F0F0F0FBE0FF5F5F5F5F5F5F5F5F5F5F5F5F5F5F5F5F5F5F5F5F5F5F5F5F5F5F5F5F5F5F5F5F5F5F5F5F5F5F5F5DCF5E2E2E2F9E2E2F5F5DCF5F5F5F5F5F5F5F5F5F5F5F5F5F5F5F5F5F5F5F5F5F5F5F5
310
F5F5F5F5F5F5F5F5F5F5F5BEF5F5F5F5F52DF5F5F5F5F5BEF5F5F5F5F5F5F5F5F5F5F5F5F5F5F5F5F5F5F5F5F5F5F5F5F5F5F5F5F5F5F5F5F5F5F5F5F5F5F5F5F5DCF5E2E2E208E2F5F5F5DCF5F5F5F5F5F5F5F5F5F5F5F5F5F5F5F5F5F5F5F5F5F5F5F5F5F5F5F5F5F5F5F5F5F5F5BEBEF5F5F5F52DF5F5F5F5BEBEF5F5F5
310
F5F5F5F5F5F5F5F5F5F5F5F5F5F5F5F5F5F5F5F5F5F5F5F5F5F5F5F5F5F5F5F5F5F5F5F5F5F5DCF5F5E2E23CE2F5F5F5DCF5F5F5F5F5F5F5F5F5F5F5F5F5F5F5F5F5F5F5F5F5F5F5F5F5F5F5F5F5F5F5F5F5F5F5BEBEBEBEBEBEBEBEBEBEBEBEBEF5F5F5F5F5F5F5F5F5F5F5F5F5F5F5F5F5F5F5F5F5F5F5F5F5F5F5F5F5F5
310
F5F5F5F5F5F5F5F5F5F5F5DCF5F5E2E201E2F5F5F5DCF5F5F5F5F5F5F5F5F5F5F5F5F5F5F5F5F5F5F5F5F5F5F5F5F5F5F5F5F5F5F5F5F5F5F5F5F5BEBEBEBEBEBEBEBEF5F5F5F5F5F5F5F5F5F5F5F5F5F5F5F5F5F5F5F5F5F5F5F5F5F5F5F5F5F5F5F5F5F5F5F5F5F5F5F5F5F5F5F5DCF5F5E2E201E2F5F5F5DCF5F5F5F5F5
310
F5F5F5F5F5F5F5F5F5F5F5F5F5F5F5F5F5F5F5F5F5F5F5F5F5F5F5F5F5F5F5F5F5F5F5F5F5F5F5F5F5F5F5F5F5F5F5F5F5F5F5F5F5F5F5F5F5F5F5F5F5F5F5F5F5F5F5F5F5F5F5F5F5F5F5F5F5F5F5F5F5F5F5F5DCF5F5E2E2F7E2F5F5F5DCF5F5F5F5F5F5F5F5F5F5F5F5F5F5F5F5F5F5F5F5F5F5F5F5F5F5F5F5F5F5F5F5
310
F5F5F5F5F5F5F5F5F5F5F5F5F5F5F5F5F5F5F5F5F5F5F5F5F5F5F5F5F5F5F5F5F5F5F5F5F5F5F5F5F5F5F5F5F5F5F5F5F5F5F5F5F5F5F5F5F5DCF5F5E2E208E2F5F5F5DCF5F5F5F5F5F5F5F5F5F5F5F5F5F5F5F5F5F5F5F5F5F5F5F5F5F5F5F5F5F5F5F5F5F5F5F5F5F5F5F5F5F5F5F5F5F5F5F5F5F5F5F5F5F5F5F5F5F5F5
310
F5F5F5F5F5F5F5F5F5F5F5F5F5F5F5F5F5F5F5F5F5F5F5F5F5F5F5F5F5F5DCF5F5E2E2FFE2F5F5F5DCF5F5F5F5F5F5F5F5F5F5F5F5F5F5F5F5F5F5F5F5F5F5F5F5F5F5F5F5F5F5F5F5F5F5F5F5F5F5F5F5F5F5F5F5F5F5F5F5F5F5F5F5F5F5F5F5F5F5F5F5F5F5F5F5F5F5F5F5F5F5F5F5F5F5F5F5F5F5F5F5F5F5F5F5F5F5
310
F5F5F5DCF5F5E2E202E2F5F5F5DCF5F5F5F5F5F5F5F5F5F5F5F5F5F5F5F5F5F5F5F5F5F5F5F5F5F5F5F5F5F5F5F5F5F5F5F5F5F5F5F5F5F5F5F5F5F5F5F5F5F5F5F5F5F5F5F5F5F5F5F5F5F5F5F5F5F5F5F5F5F5F5F5F5F5F5F5F5F5F5F5F5F5F5F5F5F5F5F5F5DCF5F5E2E200E2F5F5F5DCF5F5F5F5F5F5F5F5F5F5F5F5F5
310
F5F5F5F5F5F5F5F5F5F5F5F5F5F5F5F5F5F5F5F5F5F5F5F5F5F5F5F5F5F5F5F5F5F5F5F5F5F5F5F5F5F5F5F5F5F5F5F5F5F5F5F5F5F5F5F5F5F5F5F5F5F5F5F5F5F5F5F5F5F5F5F5F5F5F5F5DCF5F5E2E2F4E2F5F5F5DCF5F5F5F5F5F5F5F5F5F5F5F5F5F5F5F5F5F5F5F5F5F5F5F5F5F5F5F5F5F5F5F5F5F5F5F5F5F5F5F5
310
F5F5F5F5F5F5F5F5F5F5F5F5F5F5F5F5F5F5F5F5F5F5F5F5F5F5F5F5F5F5F5F5F5F5F5F5F5F5F5F5F5F5F5F5F5F5F5F5F5DCF5F5E2E236E2E2F5F5DCF5F5F5F5F5F5F5F5F5F5F5F5F5F5F5F5F5F5F5F5F5F5F5F5F5F5F5F5F5F5F5F5F5F5F5F5F5F5F5F5F5F5F5F5F5F5F5F5F5F5F5F5F5F5F5F5F5F5F5F5F5F5F5F5F5F5F5
310
F5F5F5F5F5F5F5F5F5F5F5F5F5F5F5F5F5F5F5F5F5F5DCF5E2E2E202E2E2F5F5DCF5F5F5F5F5F5F5F5F5F5F5F5F5F5F5F5F5F5F5F5F5F5F5F5F5F5F5F5F5F5F5F5F5F5F5F5F5F5F5F5F5F5F5F5F5F5F5F5F5F5F5F5F5F5F5F5F5F5F5F5F5F5F5F5F5F5F5F5F5F5F5F5F5F5F5F5F5F5F5F5F5F5F5F5F5F5F5F5F5DCF5E2E2E2
310
01E2E2F5F5DCF5F5F5F5F5F5F5F5F5F5F5F5F5F5F5F5F5F5F5F5F5F5F5F5F5F5F5F5F5F5F5F5F5F5F5F5F5F5F5F5F5F5F5F5F5F5F5F5F5F5F5F5F5F5F5F5F5F5F5F5F5F5F5F5F5F5F5F5F5F5F5F5F5F5F5F5F5F5F5F5F5F5F5F5F5F5F5F5F5DCF5E2E2E2F1E2E2F5F5DCF5F5F5F5F5F5F5F5F5F5F5F5F5F5F5F5F5F5F5F5F5
310
BEF5F5F5F5F5F5F5F5F5F5F5F5F5F5F5F5F5F5F5F5F5F5F5F5F5F5F5F5F5F5F5F5F5F5F5F5F5F5F5F5F5F5F5F5F5BEF5F5F5F5F5F5F5F5F5F5F5F5F5F5F5F5F5F5F5F5F5DCF5E2E2E208E2E2F5F5DCF5F5F5F5F5F5F5F5F5F5F5F5F5F5F5F5F5F5F5F5F5BEBEBEBEBEBEBEBEBEBEBEBEBEBEBEBEBEBEBEBEBEBEBEBEBEBEBE
310
BEBEBEBEBEBEBEBEBEBEBEBEBEBEBEBEBEBEBEBEF5F5F5F5F5F5F5F5F5F5F5F5F5F5F5F5F5F5F5F5F5DCF5E2E2E201E2E2F5F5DCF5F5F5F5F5F5F5F5F5F5F5F5F5F5F5F5F5F5F5F5F5BEF5F5F5F5F5F5F5F5F5F5F5F5F5F5F5F5F5F5F5F5F5BEBEBEF5F5F5F5F5F5F5F5F5F5F5F5F5F5F5F5F5F5F5F5F5BEF5F5F5F5F5F5F5
310
F5F5F5F5F5F5F5F5F5F5F5F5F5F5DCF5E2E2E201E2E2F5F5DCF5F5F5F5F5F5F5F5F5F5F5F5F5F5F5F5F5F5F5F5F5BEF5F5F5F5F5F5F5F5F5F5F5F5F5F5F5F5F5F5F5F5F5BEBEBEF5F5F5F5F5F5F5F5F5F5F5F5F5F5F5F5F5F5F5F5F5BEF5F5F5F5F5F5F5F5F5F5F5F5F5F5F5F5F5F5F5F5F5DCF5E2E2E20DE2E2F5F5DCF5F5
310
F5F5F5F5F5F5F5F5F5F5F5F5F5F5F5F5F5F5F5BEF5F5F5F5F5F5F5F5F5F5F5F5F5F5F5F5F5F5F5F5F5F5F5F5F5F5F5F5F5F5F5F5F5F5F5F5F5F5F5F5F5F5F5F5F5BEF5F5F5F5F5F5F5F5F5F5F5F5F5F5F5F5F5F5F5F5F5DCF5E2E2E206E2E2F5F5DCF5F5F5F5F5F5F5F5F5F5F5F5F5F5F5F5F5F5F5F5F5BEF5F5F5F5F5F5F5
310
F5F5F5F5F5F5F50F0F0F0F0FBEBEBEBEBEBEBEBEBEBEBEBEBEBEBEBEBEBEBEBEBEBEBEBEBEBEBEBEBEBEBEBEBEBEBEBEF5F5F5F5F5F5F5F5F5F5F5F5DCF5E2E2E2FDE2E2F5F5DCF5F5F5F5F5F5F5F5F5F5F5F5F5F5F5F5F5F5F5F5F5BEF5F5F5F5F5F5F5F5F5F5F5F50F0F0F0F0F0FF50FF50F0F0F0F0F0FF5F5F5F5F5F5F5
310
F5F5F5F5F5F5F5F5F5F5F5BEF5F5F5F5F5F5F5BEF5F5F5F5F5F5F5F5F5F5F5F5F5DCF5E2E2E202E2E2F5F5DCF5F5F5F5F5F5F5F5F5F5F5F5F5F5F5F5F5F5F5F5F5BEF5F5F5F5F5F5F5F5F5F50F0F0FF5F5F5F50F0FF50F0FF5F5F5F50F0F0FF5F5F5F5F5F5F5F5F5F5F5F5F5F5F5F5BEF5F5F5F5F5F5F5BEF5F5F5F5F5F5F5
310
F5F5F5F5F5F5DCF5E2E2E202E2E2F5F5DCF5F5F5F5F5F5F5F5F5F5F5F5F5F5F5F5F5F5F5F5F5BEF5F5F50FF5F5F5F50F0FF5F5F5F5F50F0FF5F5F5F5F50F0FF5F5F5F5F50F0FF5F5F5F50FF5F5F5F5F5F5F5F5F5BEF5F5F5F5F5F5F5BEF5F5F5F5F5F5F5F5F5F5F5F5F5DCF5E2E2E202E2E2F5F5DCF5F5F5F5F5F5F5F5F5F5
310
F5F5F5F5F5F5F5F5F5F5F5BEF5F50FF5C30F0F0FF5F5F5F5F5F50FF5F5F5F5F5F5F5F5F50FF5F5F5F5F5F50F0F0F0FC30FF5F5F5F5F5F5F5F5BEF5F5F5F5F5F5F5BEF5F5F5F5F5F5F5F5F5F5F5F5F5DCF5E2E2E202E2E2F5F5DCF5F5F5F5F5F5F5F5F5F5F5F5F5F5F5F5F5F5F5F5F5BEF5F5F50F0F0F0FF5F5F5F5F5F50FF5
310
F5F5F5F5F5F5F5F5F5F50FF5F5F5F5F5F50F0F0F0FF5F5F5F5F5F5F5F5F5BEF5F5F5F5F5F5F5BEF5F5F5F5F5F5F5F5F5F5F5F5F5DCF5E2E2E260E2E2F5F5DCF5F5F5F5F5F5F5F5F5F5F5F5F5F5F5F5F5F5F5F5F5BEF5F5F5F50F0FF5F5F5F5F5F5F50FF5F5F5F5F52DF5F5F5F5F50FF5F5F5F5F5F5F50F0FF5F5F5F5F5F5F5
310
F5F5F5BEF5F5F5F5F5F5F5BEF5F5F5F5F5F5F5F5F5F5F5F5F5DCF5E2E2E208E2E2F5F5DCF5F5F5F5F5F5F5F5F5F5F5F5F5F5F5F5F5F5F5F5F5BEF5F5F50F0FF5F5F5F5F5F5F5F50FF5F5F5F52D2D2DF5F5F5F50FF5F5F5F5F5F5F5F50F0FF5F5F5F5F5F5F5F5F5BEF5F5F5F5F5F5F5BEF5F5F5F5F5F5F5F5F5F5F5F5F5DCF5
310
E2E2E20EE2E2F5F5DCF5F5F5F5F5F5F5F5F5F5F5F5F5F5F5F5F5F5F5F5F5BEF5F5F50FF5F5F5F5F5F5F5F5F50FF5F5F5F5F52DF5F5F5F5F50FF5F5F5F5F5F5F5F5F50F0FF5F5F5F5F5F5F5F5BEF5F5F5F5F5F5F5BEF5F5F5F5F5F5F5F5F5F5F5F5F5DCF5E2E2E208E2F5F5F5DCF5F5F5F5F5F5F5F5F5F5F5F5F5F5F5F5F5F5
310
F5F5F5BEF5F50F0FF5F5F5F5F5F5F5F5F50FF5F5F5F5F5F5F5F5F5F5F50FF5F5F5F5F5F5F5F5F5F50FF5F5F5F5F5F5F5F5BEF5F5F5F5F5F5F5BEF5F5F5F5F5F5F5F5F5F5F5F5F5DCF5F5E2E203E2F5F5F5DCF5F5F5F5F5F5F5F5F5F5F5F5F5F5F5F5F5F5F5F5F5BEF5F50FF5F5F5F5F5F5F5F5F5F5F50FF5F5F5F5F5F5F5F5
310
F50FF5F5F5F5F5F5F5F5F5F5F50F0FF5F5F5F5F5F5F5BEF5F5F5F5F5F5F5BEF5F5F5F5F5F5F5F5F5F5F5F5F5DCF5F5E2E23AE2F5F5F5DCF5F5F5F5F5F5F5F5F5F5F5F5F5F5F5F5F5F5F5F5F5BEF50FF5F5F5F5F5F5F5F5F5F5F5F5F50FF5F5F5F5F5F5F50FF5F5F5F5F5F5F5F5F5F5F5F5F50FF5F5F5F5F5F5F5BEF5F5F5F5
310
F5F5F5BEF5F5F5F5F5F5F5F5F5F5F5F5F5DCF5F5E2E200E2F5F5F5DCF5F5F5F5F5F5F5F5F5F5F5F5F5F5F5F5F5F5F5F5F5BEF50FF5F5F5F5F5F5F5F5F5F5F5F5F5F50FF5F5F5F5F50FF5F5F5F5F5F5F5F5F5F5F5F5F5F50F0F0F0F0F0F0F0FBEBEBEBEBEF5F5F5BEF5F5F5F5F5F5F5F5F5F5F5F5F5DCF5F5E2E2F9E2F5F5F5
310
DCF5F5F5F5F5F5F5F5F5F5F5F5F5F5F5F5F5F5F5F5F5BE0F0FF5F5F5F5F5F5F5F5F5F5F5F5F5F5F50F0F0F0F0FF5F5F5F5F5F5F5F5F5F5F5F5F5F5F5F50F0F0F0F0F0F0FBEF5F5BEBEF5F5F5BEF5F5F5F5F5F5F5F5F5F5F5F5F5DCF5F5E2E21EE2F5F5F5DCF5F5F5F5F5F5F5F5F5F5F5F5F5F5F5F5F5F5F5F5F5BE0FF5F5F5
310
0F0F0F0F0F0FF5F5F50F0F0F0F0F0F0F0F0F0F0F0F0FF5F5F50F0F0F0F0F0FF5F5F50F0FECF50FF5ECBEF5F5BEBEF5F5F5BEF5F5F5F5F5F5F5F5F5F5F5F5F5DCF5F5E2E201E2F5F5F5DCF5F5F5F5F5F5F5F5F5F5F5F5F5F5F5F5F5F5F5F5F5BE0FF50F0FF5F5F5F5F5F50F0FF50F0FF5F5F5F5F5F5F5F5F50F0FF50F0FF5F5
310
F5F5F5F50F0FF50F2D2D0F0F0FECBEF5F5BEF5F5F5F5BEF5F5F5F5F5F5F5F5F5F5F5F5F5DCF5F5E2E202E2F5F5F5DCF5F5F5F5F5F5F5F5F5F5F5F5F5F5F5F5F5F5F5F5F5BE0FF50FF5F5F5F5F5F5F5F5F50F0FF52D2D2D2D2D2D2DF50FF50FF50FF5F5F5F5F5F5F5F5F50F0F0FEC0F0FF5ECBEF5F5BEF5F5F5F5BEF5F5F5F5
310
F5F5F5F5F5F5F5F5F5DCF5F5E2E201E2F5F5F5DCF5F5F5F5F5F5F5F5F5F5F5F5F5F5F5F5F5F5F5F5F5BE0F0FF5F5F5F5F5F5F5F5F5F50F0F2D2D2D2D2D2D2D2D0F0FE20F0FF5F5F5F5F5F5F5F5F5F50F0F0FECF5F5F5ECBEF5F5BEF5F5F5F5BEF5F5F5F5F5F5F5F5F5F5F5F5F5DCF5F5E2E2FDE2F5F5F5DCF5F5F5F5F5F5F5
310
F5F5F5F5F5F5F5F5F5F5F5F5F5F5BEF50FF5F5F5F5F5F5F5F5F5F50F0F2D2DF5F5F5F52D2D0F0F0F0F0FF5F5F5F5F5F5F5F5F5F50FF50FECF5F5F5ECBEF5BEBEF5F5BEBEBEF5F5F5F5F5F5F5F5F5F5F5F5F5DCF5F5E2E201E2E2F5F5DCF5F5F5F5F5F5F5F5F5F5F5F5F5F5F5F5F5F5F5F5F5BE0FF5F5F5F5F52DF5F5F5F5F5
310
F50F2D2DF5F5F5F5F52D0FF50F0FF5F5F5F5F5F52DF5F5F5F5F50F0FECF5F5F5ECBEF5BEBEF5F5BEBEBEF5F5F5F5F5F5F5F5F5F5F5F5F5DCF5E2E2E20EE2E2F5F5DCF5F5F5F5F5F5F5F5F5F5F5F5F5F5F5F5F5F5F5F5F5BE0FF5F5F5F5F52D2DF5F5F5F5F50F2D2DF5F5F5F5F52D0FF50F0FF5F5F5F5F52D2DF5F5F5F5F50F
310
0FECF5F5F5ECBEF5BEBEF5F5BEBEBEF5F5F5F5F5F5F5F5F5F5F5F5F5DCF5E2E2E22AE2E2F5F5DCF5F5F5F5F5F5F5F5F5F5F5F5F5F5F5F5F5F5F5F5F50FF50FF5F5F5F5F5F5F5F5F5F5F50F2D2DF5F5F5F5F52D0FF50F0F0FF5F5F5F5F52DF5F5F5F5F50F0FECF5F5F5EC0FF5BEBEF5F5BEBEBEF5F5F5F5F5F5F5F5F5F5F5F5
310
F5DCF5E2E2E23CE2E2F5F5DCF5F5F5F5F5F5F5F5F5F5F5F5F5F5F5F5F5F5F5F5F50F0F0FF5F5F5F5F5F5F5F5F5F50F0F2D2D2DF5F52D2D2D0F0F0F0F0FF5F5F5F52DF5F5F5F5F50FF50FECF5F5F5EC0FF5F5BEF5F5F5F5BEF5F5F5F5F5F5F5F5F5F5F5F5F5DCF5E2E2E208E2E2F5F5DCF5F5F5F5F5F5F5F5F5F5F5F5F5F5F5
310
F5F5F5F5F5F50F0FF50FF5F5F5F5F5F5F5F5F50F0FF52D2D2D2D2D2D2DF50FF50FF50FF5F5F52DF5F5F5F5F50F0F0FECF5F5F5EC0FF5F5BEF5F5F5F5BEF5F5F5F5F5F5F5F5F5F5F5F5F5DCF5E2E2E2FDE2E2F5F5DCF5F5F5F5F5F5F5F5F5F5F5F5F5F5F5F5F5F5F5F5F50F0FF50FF5F5F5F5F5F5F5F50FF50F0FF5F5F5F5F5
310
F5F5F5F50F0FF50FF5F5F52DF5F5F5F50FF50F2D2DF5F5F5EC0FF5F5BEF5F5F5F5BEF5F5F5F5F5F5F5F5F5F5F5F5F5DCF5E2E2E202E2E2F5F5DCF5F5F5F5F5F5F5F5F5F5F5F5F5F5F5F5F5F5F5F5F5F50FF5F50F0FF5F5F50F0F0FF5F50F0F0F0F0F0F0F0F0F0F0F0F0FF5F50F0F2DF5F5F50F0FF5F50F0FECF5F5F5EC0FF5
310
F5BEBEF5F5F5BEF5F5F5F5F5F5F5F5F5F5F5F5F5DCF5E2E2E22AE2E2F5F5DCF5F5F5F5F5F5F5F5F5F5F5F5F5F5F5F5F5F5F5F5F5F50F0FF5F5F50F0F0FF5F5F5F5F5F5F5F5F50F0F0F0F0FF5F5F5F5F5F5F5F52D0F0F0FF5F5F5F50F0FECF5F5F5EC0FF5F5BEBEF5F5F5BEF5F5F5F5F5F5F5F5F5F5F5F5F5DCF5E2E2E2FDE2
310
E2F5F5DCF5F5F5F5F5F5F5F5F5F5F5F5F5F5F5F5F5F5F5F5F5F5F50FF5F5F5F5F5F5F5F5F5F5F5F5F5F50FF5F5F5F5F50FF5F5F5F5F5F5F5F5F5F5F5F5F5F50F0F0F0F0F0F0F0FBEBEBEBEBEF5F5F5BEF5F5F5F5F5F5F5F5F5F5F5F5F5DCF5E2E2E202E2E2F5F5DCF5F5F5F5F5F5F5F5F5F5F5F5F5F5F5F5F5F5F5F5F5F5F5
310
0FF5F5F5F5F5F5F5F5F5F5F5F5F50FF5F5F5F5F5F5F50FF5F5F5F52D2DF5F5F5F5F5F5F50FF5F5F5F5F5F5F5F5F5F5F5F5F5F5F5BEF5F5F5F5F5F5F5F5F5F5F5F5F5DCF5E2E2E2F5E2E2F5F5DCF5F5F5F5F5F5F5F5F5F5F5F5F5F5F5F5F5F5F5F5F5F5F5F50FF5F5F5F5F5F5F5F5F5F5F50FF5F5F5F5F5F5F5F5F50FF5F52D
310
F5F5F5F5F5F5F5F50F0FF5F5F5F5F5F5F5F5F5F5F5F5F5F5F5BEF5F5F5F5F5F5F5F5F5F5F5F5F5DCF5E2E2E208E2E2F5F5DCF5F5F5F5F5F5F5F5F5F5F5F5F5F5F5F5F5F5F5F5F5F5F5F50F0FF5F5F5F5F5F5F5F5F50FF5F5F5F5F5F5F5F5F5F5F50FF5F5F5F5F5F5F5F5F5F50FF5F5F5F5F5F5F5F5F5F5F5F5F5F5F5F5BEF5
310
F5F5F5F5F5F5F5F5F5F5F5F5DCF5E2E2E218E2E2F5F5DCF5F5F5F5F5F5F5F5F5F5F5F5F5F5F5F5F5F5F5F5F5F5F5F5F50FF5F5F5F5F5F5F5F5F50FF5F5F5F5F52DF5F5F52D2D0FF5F5F5F5F5F5F5F5F50F0FF5F5F5F5F5F5F5F5F5F5F5F5F5F5F5F5BEF5F5F5F5F5F5F5F5F5F5F5F5F5DCF5E2E2E201E2E2F5F5DCF5F5F5F5
310
F5F5F5F5F5F5F5F5F5F5F5F5F5F5F5F5F5F5F5F5F50F0FF5F5F5F5F5F5F5F50FF5F5F5F52D2D2D2D2DF5F50FF5F5F5F5F5F5F5F50F0FF5F5F5F5F5F5F5F5F5F5F5F5F5F5F5F5F5BEF5F5F5F5F5F5F5F5F5F5F5F5F5DCF5E2E2E224E2E2F5F5DCF5F5F5F5F5F5F5F5F5F5F5F5F5F5F5F5F5F5F5F5F5F5F5F5F5F50F0FF5F5F5
310
F5F5F5F50FF5F5F5F5F52DF5F5F5F5F50FF5F5F5F5F5F5F50F0FF5F5F5F5F5F5F5F5F5F5F5F5F5F5F5F5F5F5BEF5F5F5F5F5F5F5F5F5F5F5F5F5DCF5E2E2E208E2E2F5F5DCF5F5F5F5F5F5F5F5F5F5F5F5F5F5F5F5F5F5F5F5F5F5F5F5F50F0F0F0FF5F5F5F5F5F50FF5F5F5F5F5F5F5F5F5F5F50FF5F5F5F5F5F50F0F0FF5
310
F5F5F5F5F5F5F5F5F5F5F5F5F5F5F5F5F5BEF5F5F5F5F5F5F5F5F5F5F5F5F5DCF5E2E2E22DE2E2F5F5DCF5F5F5F5F5F5F5F5F5F5F5F5F5F5F5F5F5F5F5F5F5F5F5F5F50F0F0F0F0FF5F5F5F5F5F50FF5F5F5F5F5F5F5F5F50FF5F5F5F5F5F50F0F0F0FC3F5F5F5F5F5F5F5F5F5F5F5F5F5F5F5F5F5BEF5F5F5F5F5F5F5F5F5
310
F5F5F5F5DCF5E2E2E240E2F5F5F5DCF5F5F5F5F5F5F5F5F5F5F5F5F5F5F5F5F5F5F5F5F5F5F5F50F0FF5F5F50F0F0FF5F5F5F5F50FF5F5F5F5F5F5F50FF5F5F5F5F50F0F0FF5F5F50F0FF5F5F5F5F5F5F5F5F5F5F5F5F5F5F5F5BEF5F5F5F5F5F5F5F5F5F5F5F5F5DCF5F5E2E201E2F5F5F5DCF5F5F5F5F5F5F5F5F5F5F5F5
310
F5F5F5F5F5F5F5F5F5F5F5F5F5F5F5F5F5F5F50F0F0FF5F5F5F50FF5F5F5F5F50FF5F5F5F50F0F0F0FF5F5F5F5F5F5F5F5F5F5F5F5F5F5F5F5F5F5F5F5F5F5BEF5F5F5F5F5F5F5F5F5F5F5F5F5DCF5F5E2E250E2F5F5F5DCF5F5F5F5F5F5F5F5F5F5F5F5F5F5F5F5F5F5F5F5F5F5F5F5F5F5F5F5F5F5F5F50F0F0F0FF5F5F5
310
0F0F0F0F0FF5F5F50F0F0F0FF5F5F5F5F5F5F5F5F5F5F5F5F5F5F5F5F5F5F5F5F5F5F5F5BEF5F5F5F5F5F5F5F5F5F5F5F5F5DCF5F5E2E201E2F5F5F5DCF5F5F5F5F5F5F5F5F5F5F5F5F5F5F5F5F5F5F5F5F5F5F5F5F5F5F5F5F5F5F5F5F5F50F0F0F0F0F0F0F0F0F0F0F0F0F0FF5F5F5F5F5F5F5F5F5F5F5F5F5F5F5F5F5F5
310
F5F5F5F5F5F5F5F5F5BEF5F5F5F5F5F5F5F5F5F5F5F5F5DCF5F5E2E208E2F5F5F5DCF5F5F5F5F5F5F5F5F5F5F5F5F5F5F5F5F5F5F5F5F5F5F5F5F5F5F5F5F5F5F5F5F5F5F5F5F5F5F50F0FBEBEBEBEBEBEBEBEBEBEBEBEBEBEBEBEBEBEBEBEBEBEBEBEBEBEBEBEBEBEBEBEBEBEBEBEF5F5F5F5F5F5F5F5F5F5F5F5DCF5F5E2
310
E201E2F5F5F5DCF5F5F5F5F5F5F5F5F5F5F5F5F5F5F5F5F5F5F5F5F5F5F5F5F5F5F5F5F5F5F5F5F5F5F5F5F5F5F5F5F5F5F5F5F5F5F5F5F5F5F5F5F5F5F5F5F5F5F5F5F5F5F5F5F5F5F5F5F5F5F5F5F5F5F5F5F5F5F5F5F5F5F5F5F5F5F5F5F5DCF5F5E2E201E2F5F5F5DCF5F5F5F5F5F5F5F5F5F5F5F5F5F5F5F5F5F5F5F5
310
F5F5F5F5F5F5F5F5F5F5F5F5F5F5F5F5F5F5F5F5F5F5F5F5F5F5F5F5F5F5F5F5F5F5F5F5F5F5F5F5F5F5F5F5F5F5F5F5F5F5F5F5F5F5F5F5F5F5F5F5F5F5F5F5F5F5F5F5F5DCF5F5E2E22CE2F5F5F5DCF5F5F5F5F5F5F5F5F5F5F5F5F5F5F5F5F5F5F5F5F5F5F5F5F5F5F5F5F5F5F5F5F5F5F5F5F5F5F5F5F5F5F5F5F5F5F5
310
F5F5F5F5F5F5F5F5F5F5F5F5F5F5F5F5F5F5F5F5F5F5F5F5F5F5F5F5F5F5F5F5F5F5F5F5F5F5F5F5F5F5DCF5F5E2E208E2F5F5F5DCF5F5F5F5F5F5F5F5F5F5F5F5F5F5F5F5F5F5F5F5F5F5F5F5F5F5F5F5F5F5F5F5F5F5F5F5F5F5F5F5F5F5F5F5F5F5F5F5F5F5F5F5F5F5F5F5F5F5F5F5F5F5F5F5F5F5F5F5F5F5F5F5F5F5
310
F5F5F5F5F5F5F5F5F5F5F5F5F5F5F5DCF5F5E2E202E2F5F5F5DCF5F5F5F5F5F5F5F5F5F5F5F5F5F5F5F5F5F5F5F5F5F5F5F5F5F5F5F5F5F5F5F5F5F5F5F5F5F5F5F5F5F5F5F5F5F5F5F5F5F5F5F5F5F5F5F5F5F5F5F5F5F5F5F5F5F5F5F5F5F5F5F5F5F5F5F5F5F5F5F5F5F5F5F5F5F5F5F5F5DCF5F5E2E290E2E2F5F5DCF5
310
F5F5F5F5F5F5F5F5F5F5F5F5F5F5F5F5F5F5F5F5F5F5F5F5F5F5F5F5F5F5F5F5F5F5F5F5F5F5F5F5F5F5F5F5F5F5F5F5F5F5F5F5F5F5F5F5F5F5F5F5F5F5F5F5F5F5F5F5F5F5F5F5F5F5F5F5F5F5F5F5F5F5F5F5F5F5F5F5DCF5E2E2E208E2E2F5F5DCF5F5F5F5F5F5F5F5F5F5F5F5F5F5F5F5F5F5F5F5F5F5F5F5F5F5F5F5
310
F5F5F5F5F5F5F5F5F5F5F5F5F5F5F5F5F5F5F5F5F5F5F5F5F5F5F5F5F5F5F5F5F5F5F5F5F5F5F5F5F5F5F5F5F5F5F5F5F5F5F5F5F5F5F5F5F5F5F5F5F5DCF5E2E2E203E2E2F5F5DCF5F5F5F5F5F5F5F5F5F5F5F5F5F5F5F5F5F5F5F5F5F5F5F5F5F5F5F5F5F5F5F5F5F5F5F5F5F5F5F5F5F5F5F5F5F5F5F5F5F5F5F5F5F5F5
310
F5F5F5F5F5F5F5F5F5F5F5F5F5F5F5F5F5F5F5F5F5F5F5F5F5F5F5F5F5F5F5F5F5F5DCF5E2E2E230E2E2F5F5DCF5F5F5F5F5F5F5F5F5F5F5F5F5F5F5F5F5F5F5F5F5F5F5F5F5F5F5F5F5F5F5F5F5F5F5F5F5F5F5F5F5F5F5F5F5F5F5F5F5F5F5F5F5F5F5F5F5F5F5F5F5F5F5F5F5F5F5F5F5F5F5F5F5F5F5F5F5F5F5F5F5F5
310
F5F5F5F5F5F5F5DCF5E2E2E208E2E2F5F5DCF5F5F5F5F5F5F5F5F5F5F5F5F5F5F5F5F5F5F5F5F5F5F5F5F5F5F5F5F5F5F5F5F5F5F5F5F5F5F5F5F5F5F5F5F5F5F5F5F5F5F5F5F5F5F5F5F5F5F5F5F5F5F5F5F5F5F5F5F5F5F5F5F5F5F5F5F5F5F5F5F5F5F5F5F5F5F5F5F5DCF5E2E2E2FCE2E2F5F5DCF5F5F5F5F5F5F5F5F5
310
F5F5F5F5F5F5F5F5F5F5F5F5F5F5F5F5F5F5F5F5F5F5F5F5F5F5F5F5F5F5F5F5F5F5F5F5F5F5F5F5F5F5F5F5F5F5F5F5F5F5F5F5F5F5F5F5F5F5F5F5F5F5F5F5F5F5F5F5F5F5F5F5F5F5F5F5F5F5F5F5DCF5E2E2E264E2E2F5F5DCDCDCDCDCDCDCDCDCDCDCDCDCDCDCDCDCDCDCDCDCDCDCDCDCDCDCDCDCDCDCDCDCDCDCDCDC
310
DCDCDCDCDCDCDCDCDCDCDCDCDCDCDCDCDCDCDCDCDCDCDCDCDCDCDCDCDCDCDCDCDCDCDCDCDCDCDCDCDCDCDCDCDCDCDCDCDCDCDCDCDCDCF5E2E2E201E2E2F5F5F5F5F5F5F5F5F5F5F5F5F5F5F5F5F5F5F5F5F5F5F5F5F5F5F5F5F5F5F5F5F5F5F5F5F5F5F5F5F5F5F5F5F5F5F5F5F5F5F5F5F5F5F5F5F5F5F5F5F5F5F5F5F5F5
310
F5F5F5F5F5F5F5F5F5F5F5F5F5F5F5F5F5F5F5F5F5F5F5F5F5F5F5F5E2E2E205E2E2E2E2E2E2E2E2E2F5F5F5F5F5F5F5F5F5E2E2E2E2E2E2E2E2E2E2E2E2E2E2E2F5F5F5F5F5F5F5F5E2E2E2E2E2E2E2E2E2E2E2E2E2E2E2E2F5F5F5F5F5F5F5F5E2E2E2E2E2E2E2E2E2E2E2E2E2E2E2F5F5F5F5F5F5F5F5F5E2E2E2E2E2E2
310
E2E2E2EF02E2F5F5F5F5F5F5F5F5F5F5F5F5F5F5F5F5F5F5F5F5F5F5F5F5F5F5F5F5F5F5F5F5F5F5F5F5F5F5F5F5F5F5F5F5F5F5F5F5F5F5F5F5F5F5F5F5F5F5F5F5F5F5F5F5F5F5F5F5F5F5F5F5F5F5F5F5F5F5F5F5F5F5F5F5F5F5F5F5F5F5F5F5F5F5F5F5E2EF08E2E2E2E2E2E2E2E2E2E2E2E2E2E2E2E2E2E2E2E2E2E2
310
E2E2E2E2E2E2E2E2E2E2E2E2E2E2E2E2E2E2E2E2E2E2E2E2E2E2E2E2E2E2E2E2E2E2E2E2E2E2E2E2E2E2E2E2E2E2E2E2E2E2E2E2E2E2E2E2E2E2E2E2E2E2E2E2E2E2E2E2E2E2E2E2E2E2E2E2EF02
  0
XRECORD
  5
D7E
102
{ACAD_REACTORS
330
B0F
102
}
330
B0F
100
AcDbXrecord
280
     1
102
MATERIAL
148
0.0
149
0.0
149
0.0
 93
        0
 94
      127
282
     0
 72
     0
 77
     0
171
     0
175
     0
179
     0
273
     0
  0
XRECORD
  5
B11
102
{ACAD_REACTORS
330
B0F
102
}
330
B0F
100
AcDbXrecord
280
     1
270
     1
271
     1
  0
XRECORD
  5
B10
102
{ACAD_REACTORS
330
B0F
102
}
330
B0F
100
AcDbXrecord
280
     1
270
     1
271
     1
  0
XRECORD
  5
B14
102
{ACAD_REACTORS
330
B0F
102
}
330
B0F
100
AcDbXrecord
280
     1
270
     1
271
     1
  0
XRECORD
  5
B13
102
{ACAD_REACTORS
330
B0F
102
}
330
B0F
100
AcDbXrecord
280
     1
270
     1
271
     1
  0
XRECORD
  5
B15
102
{ACAD_REACTORS
330
B0F
102
}
330
B0F
100
AcDbXrecord
280
     1
270
     1
271
     1
  0
XRECORD
  5
B12
102
{ACAD_REACTORS
330
B0F
102
}
330
B0F
100
AcDbXrecord
280
     1
270
     1
271
     1
  0
XRECORD
  5
D7D
102
{ACAD_REACTORS
330
B07
102
}
330
B07
100
AcDbXrecord
280
     1
102
MATERIAL
148
0.0
149
0.0
149
0.0
 93
        0
 94
      127
282
     0
 72
     0
 77
     0
171
     0
175
     0
179
     0
273
     0
  0
XRECORD
  5
B09
102
{ACAD_REACTORS
330
B07
102
}
330
B07
100
AcDbXrecord
280
     1
270
     1
271
     1
  0
XRECORD
  5
B08
102
{ACAD_REACTORS
330
B07
102
}
330
B07
100
AcDbXrecord
280
     1
270
     1
271
     1
  0
XRECORD
  5
B0C
102
{ACAD_REACTORS
330
B07
102
}
330
B07
100
AcDbXrecord
280
     1
270
     1
271
     1
  0
XRECORD
  5
B0B
102
{ACAD_REACTORS
330
B07
102
}
330
B07
100
AcDbXrecord
280
     1
270
     1
271
     1
  0
XRECORD
  5
B0D
102
{ACAD_REACTORS
330
B07
102
}
330
B07
100
AcDbXrecord
280
     1
270
     1
271
     1
  0
XRECORD
  5
B0A
102
{ACAD_REACTORS
330
B07
102
}
330
B07
100
AcDbXrecord
280
     1
270
     1
271
     1
  0
XRECORD
  5
D7F
102
{ACAD_REACTORS
330
B17
102
}
330
B17
100
AcDbXrecord
280
     1
102
MATERIAL
148
0.0
149
0.0
149
0.0
 93
        0
 94
      127
282
     0
 72
     0
 77
     0
171
     0
175
     0
179
     0
273
     0
  0
XRECORD
  5
B19
102
{ACAD_REACTORS
330
B17
102
}
330
B17
100
AcDbXrecord
280
     1
270
     1
271
     1
  0
XRECORD
  5
B18
102
{ACAD_REACTORS
330
B17
102
}
330
B17
100
AcDbXrecord
280
     1
270
     1
271
     1
  0
XRECORD
  5
B1C
102
{ACAD_REACTORS
330
B17
102
}
330
B17
100
AcDbXrecord
280
     1
270
     1
271
     1
  0
XRECORD
  5
B1B
102
{ACAD_REACTORS
330
B17
102
}
330
B17
100
AcDbXrecord
280
     1
270
     1
271
     1
  0
XRECORD
  5
B1D
102
{ACAD_REACTORS
330
B17
102
}
330
B17
100
AcDbXrecord
280
     1
270
     1
271
     1
  0
XRECORD
  5
B1A
102
{ACAD_REACTORS
330
B17
102
}
330
B17
100
AcDbXrecord
280
     1
270
     1
271
     1
  0
CELLSTYLEMAP
  5
D78
102
{ACAD_REACTORS
330
D77
102
}
330
D77
100
AcDbCellStyleMap
 90
        3
300
CELLSTYLE
  1
TABLEFORMAT_BEGIN
 90
        5
170
     1
 91
        0
 92
    32768
 62
   257
 93
        1
300
CONTENTFORMAT
  1
CONTENTFORMAT_BEGIN
 90
        0
 91
        0
 92
      512
 93
        0
300

 40
0.0
140
1.0
 94
        5
 62
     0
340
11
144
6.0
309
CONTENTFORMAT_END
171
     1
301
MARGIN
  1
CELLMARGIN_BEGIN
 40
1.5
 40
1.5
 40
1.5
 40
1.5
 40
4.5
 40
4.5
309
CELLMARGIN_END
 94
        6
 95
        1
302
GRIDFORMAT
  1
GRIDFORMAT_BEGIN
 90
        0
 91
        1
 62
     0
 92
       -2
340
0
 93
        0
 40
1.125
309
GRIDFORMAT_END
 95
        2
302
GRIDFORMAT
  1
GRIDFORMAT_BEGIN
 90
        0
 91
        1
 62
     0
 92
       -2
340
0
 93
        0
 40
1.125
309
GRIDFORMAT_END
 95
        4
302
GRIDFORMAT
  1
GRIDFORMAT_BEGIN
 90
        0
 91
        1
 62
     0
 92
       -2
340
0
 93
        0
 40
1.125
309
GRIDFORMAT_END
 95
        8
302
GRIDFORMAT
  1
GRIDFORMAT_BEGIN
 90
        0
 91
        1
 62
     0
 92
       -2
340
0
 93
        0
 40
1.125
309
GRIDFORMAT_END
 95
       16
302
GRIDFORMAT
  1
GRIDFORMAT_BEGIN
 90
        0
 91
        1
 62
     0
 92
       -2
340
0
 93
        0
 40
1.125
309
GRIDFORMAT_END
 95
       32
302
GRIDFORMAT
  1
GRIDFORMAT_BEGIN
 90
        0
 91
        1
 62
     0
 92
       -2
340
0
 93
        0
 40
1.125
309
GRIDFORMAT_END
309
TABLEFORMAT_END
  1
CELLSTYLE_BEGIN
 90
        1
 91
        1
300
_TITLE
309
CELLSTYLE_END
300
CELLSTYLE
  1
TABLEFORMAT_BEGIN
 90
        5
170
     1
 91
        0
 92
        0
 62
   257
 93
        1
300
CONTENTFORMAT
  1
CONTENTFORMAT_BEGIN
 90
        0
 91
        0
 92
      512
 93
        0
300

 40
0.0
140
1.0
 94
        5
 62
     0
340
11
144
4.5
309
CONTENTFORMAT_END
171
     1
301
MARGIN
  1
CELLMARGIN_BEGIN
 40
1.5
 40
1.5
 40
1.5
 40
1.5
 40
4.5
 40
4.5
309
CELLMARGIN_END
 94
        6
 95
        1
302
GRIDFORMAT
  1
GRIDFORMAT_BEGIN
 90
        0
 91
        1
 62
     0
 92
       -2
340
0
 93
        0
 40
1.125
309
GRIDFORMAT_END
 95
        2
302
GRIDFORMAT
  1
GRIDFORMAT_BEGIN
 90
        0
 91
        1
 62
     0
 92
       -2
340
0
 93
        0
 40
1.125
309
GRIDFORMAT_END
 95
        4
302
GRIDFORMAT
  1
GRIDFORMAT_BEGIN
 90
        0
 91
        1
 62
     0
 92
       -2
340
0
 93
        0
 40
1.125
309
GRIDFORMAT_END
 95
        8
302
GRIDFORMAT
  1
GRIDFORMAT_BEGIN
 90
        0
 91
        1
 62
     0
 92
       -2
340
0
 93
        0
 40
1.125
309
GRIDFORMAT_END
 95
       16
302
GRIDFORMAT
  1
GRIDFORMAT_BEGIN
 90
        0
 91
        1
 62
     0
 92
       -2
340
0
 93
        0
 40
1.125
309
GRIDFORMAT_END
 95
       32
302
GRIDFORMAT
  1
GRIDFORMAT_BEGIN
 90
        0
 91
        1
 62
     0
 92
       -2
340
0
 93
        0
 40
1.125
309
GRIDFORMAT_END
309
TABLEFORMAT_END
  1
CELLSTYLE_BEGIN
 90
        2
 91
        1
300
_HEADER
309
CELLSTYLE_END
300
CELLSTYLE
  1
TABLEFORMAT_BEGIN
 90
        5
170
     1
 91
        0
 92
        0
 62
   257
 93
        1
300
CONTENTFORMAT
  1
CONTENTFORMAT_BEGIN
 90
        0
 91
        0
 92
      512
 93
        0
300

 40
0.0
140
1.0
 94
        2
 62
     0
340
11
144
4.5
309
CONTENTFORMAT_END
171
     1
301
MARGIN
  1
CELLMARGIN_BEGIN
 40
1.5
 40
1.5
 40
1.5
 40
1.5
 40
4.5
 40
4.5
309
CELLMARGIN_END
 94
        6
 95
        1
302
GRIDFORMAT
  1
GRIDFORMAT_BEGIN
 90
        0
 91
        1
 62
     0
 92
       -2
340
0
 93
        0
 40
1.125
309
GRIDFORMAT_END
 95
        2
302
GRIDFORMAT
  1
GRIDFORMAT_BEGIN
 90
        0
 91
        1
 62
     0
 92
       -2
340
0
 93
        0
 40
1.125
309
GRIDFORMAT_END
 95
        4
302
GRIDFORMAT
  1
GRIDFORMAT_BEGIN
 90
        0
 91
        1
 62
     0
 92
       -2
340
0
 93
        0
 40
1.125
309
GRIDFORMAT_END
 95
        8
302
GRIDFORMAT
  1
GRIDFORMAT_BEGIN
 90
        0
 91
        1
 62
     0
 92
       -2
340
0
 93
        0
 40
1.125
309
GRIDFORMAT_END
 95
       16
302
GRIDFORMAT
  1
GRIDFORMAT_BEGIN
 90
        0
 91
        1
 62
     0
 92
       -2
340
0
 93
        0
 40
1.125
309
GRIDFORMAT_END
 95
       32
302
GRIDFORMAT
  1
GRIDFORMAT_BEGIN
 90
        0
 91
        1
 62
     0
 92
       -2
340
0
 93
        0
 40
1.125
309
GRIDFORMAT_END
309
TABLEFORMAT_END
  1
CELLSTYLE_BEGIN
 90
        3
 91
        2
300
_DATA
309
CELLSTYLE_END
  0
XRECORD
  5
D80
102
{ACAD_REACTORS
330
D77
102
}
330
D77
100
AcDbXrecord
280
     1
102
ACAD_ROUNDTRIP_PRE2007_TABLESTYLE
 90
      512
 91
        0
  1

 92
      512
 93
        0
  2

 94
      512
 95
        0
  3

  0
ENDSEC
  0
EOF
